Подписывайся на наш канал в Telegram https://t.me/torrentok и получи доступ к торрентам без ограничений!
. bolt.mmix.club
Авторские права
con...@...Показать
Вход на сайт
Логин:
Пароль:
 
Навигация по сайту
Популярные статьи

Торрент трекер | Скачать торрент | Скачать через Торрент | Скачать торрент бесплатно | Скачать торрент без регистрации Фильмы торрент скачать Злоупотребление (Лотерея) / La Riffa / The Raffle (1991) DVDRip [H.264] [AVO] торрент скачать бесплатно

Злоупотребление (Лотерея) / La Riffa / The Raffle (1991) DVDRip [H.264] [AVO] торрент скачать бесплатно

Фильмы торрент скачать
Злоупотребление (Лотерея) / La Riffa / The Raffle (1991) DVDRip [H.264] [AVO]Производство: Италия/Produttori Associati
Жанр: Драма, мелодрама, комедия
Режиссер: Франческо Лаудадио

Актеры
Моника Беллуччи, Джулио Скарпати, Массимо Гини, Елена Кантароне, Карла Кассола, Сандра Коллодел, Паоло Бусири Вичи Д’Арчевия, Паоло Де Вита, Роберто Делла Каза, Барбара Кристина Энгельхардт

Описание

Франческа, невероятно красивая молодая женщина, потеряла мужа. После его смерти она обнаруживает доказательства его неверности и огромное количество долгов, которые он оставил. Чезаре - лучший друг Франчески, юрист. Следуя его советам Франческа начинает продавать все свое имущество: дом, драгоценности, меха и яхту. После этого она будет в состоянии выжить какое-то время, хотя не будет иметь никаких перспектив на будущее. Поразмыслив, она принимает нестандартное решение: устраивает лотерею, в которой приз - она сама. Двадцать человек из высшего общества Бари, друзья мужа принимают правила и покупают билеты...


Возраст: 18+ (зрителям, достигшим 18 лет. запрещено для детей)
Продолжительность: 01: 24: 58
Качество видео: DVDRip
Перевод: Одноголосый профессиональный (авторский)
Субтитры: отсутствуют
Видео: AVC/H.264, 720x392, ~1957 kbps
Аудио 1: AC3, 2 ch, 192 kbps | Русский AVO (Леонид Машинский)
Аудио 2: AC3, 1 ch, 96 kbps | Итальянский (Оригинал)
Общее
Уникальный идентификатор : 221387072673048411155734790672661162992 (0xA68D9968D975D6B48B6A832820A92BF0)
Полное имя : M: Моника БеллуччиЗлоупотреблениеЗлоупотребление. 1991.mkv
Формат : Matroska
Версия формата : Version 4/Version 2
Размер файла : 1, 33 Гбайт
Продолжительность : 1 ч. 24 м.
Общий поток : 2247 Кбит/сек
Название фильма : Release from Topmost
Дата кодирования : UTC 2020-08-22 19: 01: 47
Программа кодирования : mkvmerge v6.2.0 (\'Promised Land\') built on Apr 28 2013 12: 22: 01
Библиотека кодирования : libebml v1.3.0 + libmatroska v1.4.0
Attachment : Yes
Видео
Идентификатор : 1
Формат : AVC
Формат/Информация : Advanced Video Codec
Профиль формата : High@L4.1
Параметр CABAC формата : Да
Параметр ReFrames формата : 12 кадров
Идентификатор кодека : V_MPEG4/ISO/AVC
Продолжительность : 1 ч. 24 м.
Битрейт : 1957 Кбит/сек
Ширина : 720 пикселей
Высота : 392 пикселя
Соотношение сторон : 1, 85: 1
Режим частоты кадров : Постоянный
Частота кадров : 25, 000 кадров/сек
Цветовое пространство : YUV
Субдискретизация насыщенности : 4: 2: 0
Битовая глубина : 8 бит
Тип развёртки : Прогрессивная
Бит/(Пиксели*Кадры) : 0.277
Размер потока : 1, 14 Гбайт (85%)
Заголовок : Злоупотребление. 1991/Release from Topmost/
Библиотека кодирования : x264 core 146 r2538 121396c
Настройки программы : cabac=1/ref=12/deblock=1: -3: -3/analyse=0x3: 0x113/me=umh/subme=11/psy=1/psy_rd=1.00: 0.15/mixed_ref=1/me_range=32/chroma_me=1/trellis=2/8x8dct=1/cqm=0/deadzone=21, 11/fast_pskip=0/chroma_qp_offset=-3/threads=12/lookahead_threads=2/sliced_threads=0/nr=0/decimate=0/interlaced=0/bluray_compat=0/constrained_intra=0/bframes=8/b_pyramid=2/b_adapt=2/b_bias=0/direct=1/weightb=1/open_gop=0/weightp=2/keyint=240/keyint_min=23/scenecut=40/intra_refresh=0/rc_lookahead=40/rc=2pass/mbtree=0/bitrate=1957/ratetol=1.0/qcomp=0.60/qpmin=0/qpmax=69/qpstep=4/cplxblur=20.0/qblur=0.5/vbv_maxrate=14000/vbv_bufsize=14000/nal_hrd=none/filler=0/ip_ratio=1.40/pb_ratio=1.30/aq=1: 0.90
Язык : Italian
Default : Да
Forced : Нет
Аудио #1
Идентификатор : 2
Формат : AC-3
Формат/Информация : Audio Coding 3
Расширение режима : CM (complete main)
Параметр Endianness формата : Big
Идентификатор кодека : A_AC3
Продолжительность : 1 ч. 24 м.
Вид битрейта : Постоянный
Битрейт : 192 Кбит/сек
Каналы : 2 канала
Расположение каналов : Front: L R
Частота : 48, 0 КГц
Битовая глубина : 16 бит
Метод сжатия : С потерями
Размер потока : 117 Мбайт (9%)
Язык : Russian
Default : Да
Forced : Нет
Аудио #2
Идентификатор : 3
Формат : AC-3
Формат/Информация : Audio Coding 3
Расширение режима : CM (complete main)
Параметр Endianness формата : Big
Идентификатор кодека : A_AC3
Продолжительность : 1 ч. 24 м.
Вид битрейта : Постоянный
Битрейт : 96, 0 Кбит/сек
Каналы : 1 канал
Расположение каналов : Front: C
Частота : 48, 0 КГц
Битовая глубина : 16 бит
Метод сжатия : С потерями
Размер потока : 58, 4 Мбайт (4%)
Язык : Italian
Default : Нет
Forced : Нет

Скриншоты для ознакомления



Все одноименные релизы в Клубе
Время раздачи: 24/7 до 5 скачавших (до появления первых 3-5 скачавших)
 
Уважаемый посетитель, Вы зашли на сайт как незарегистрированный пользователь. Мы рекомендуем Вам зарегистрироваться либо зайти на сайт под своим именем.

Другие новости по теме:

  • Злоупотребление (Лотерея) / La riffa / The Raffle (1991) WEB-DL [H.264 / 1080p] [AVO]


  • Информация
    Посетители, находящиеся в группе Гости, не могут оставлять комментарии в данной новости.
    Главная страница | Регистрация | Добавить новость | Новое на сайте Copyright © 2019. bolt.mmix.club All Rights Reserved