Подписывайся на наш канал в Telegram https://t.me/torrentok и получи доступ к торрентам без ограничений!
. bolt.mmix.club
Авторские права
con...@...Показать
Вход на сайт
Логин:
Пароль:
 
Навигация по сайту
Популярные статьи

Торрент трекер | Скачать торрент | Скачать через Торрент | Скачать торрент бесплатно | Скачать торрент без регистрации Фильмы торрент скачать Трон / Tron (1982) BDRip [H.265 / 1080p] [10-bit] торрент скачать бесплатно

Трон / Tron (1982) BDRip [H.265 / 1080p] [10-bit] торрент скачать бесплатно

Фильмы торрент скачать
Трон / Tron (1982) BDRip [H.265 / 1080p] [10-bit]Производство: США/Walt Disney Productions, Lisberger/Kushner
Жанр: Фантастика, боевик, приключения
Режиссер: Стивен Лисбергер

Актеры
Джефф Бриджес, Брюс Бокслейтнер, Дэвид Уорнер, Синди Морган, Барнард Хьюз, Дэн Шор, Питер Джурасик, Тони Стефано, Крэйг Чьюди, Винс Дедрик мл.

Описание

Вам никогда не приходила в голову мысль попасть внутрь компьютерной игры и стать ее участником? До определенного момента Кевин Флинн тоже думал, что это возможно лишь в его воображении. Но, оказавшись в секретной лаборатории, разрабатывающей компьютерные программы, ему предоставляется возможность увидеть электронный мир изнутри и сразиться в жестокой схватке с самим хозяином виртуальной вселенной.


Возраст: 12+ (зрителям, достигшим 12 лет)
Рейтинг MPAA: PG (рекомендуется присутствие родителей)
Релиз от: KORSAR
Продолжительность: 01: 35: 47
Качество видео: BDRip
Перевод: Дублированный, профессиональный многоголосый
Субтитры: Русские, английские
Видео: HEVC/H.265, 1920x870, ~12.3 Mbps
Аудио 1: AC3, 2 ch, 192 Kbps - Русский (DUB, R5)
Аудио 2: AC3, 6 ch, 640 Kbps - Русский (MVO, Карусель)
Аудио 3: AC3, 2 ch, 192 Kbps - Русский (MVO, Останкино)
Аудио 4: AC3, 6 ch, 640 Kbps - Английский (Оригинал)General
Unique ID : 161490972603357227453779355232817679630 (0x797E07AD53953DE36B69AC4716C48D0E)
Complete name : Трон - TRON (1982) BDRip-HEVC 1080p - KORSAR.mkv
Format : Matroska
Format version : Version 4/Version 2
File size : 9.37 GiB
Duration : 1 h 35 min
Overall bit rate : 14.0 Mb/s
Movie name : Tron (1982)_rip_by_Cthulhu
Encoded date : UTC 2019-05-03 10: 00: 35
Writing application : mkvmerge v28.2.0 (\'The Awakening\') 64-bit
Writing library : libebml v1.3.6 + libmatroska v1.4.9
Cover : Yes
Attachments : cover2.jpg
Video
ID : 1
Format : HEVC
Format/Info : High Efficiency Video Coding
Format profile : Main10@L4.1@High
Codec ID : V_MPEGH/ISO/HEVC
Duration : 1 h 35 min
Bit rate : 12.3 Mb/s
Width : 1 920 pixels
Height : 870 pixels
Display aspect ratio : 2.2: 1
Frame rate mode : Constant
Frame rate : 23.976 (23976/1000) FPS
Original frame rate : 23.976 (24000/1001) FPS
Color space : YUV
Chroma subsampling : 4: 2: 0
Bit depth : 10 bits
Bits/(Pixel*Frame) : 0.308
Stream size : 8.25 GiB (88%)
Writing library : x265 3.0+1-ed72af837053: WindowsMSVC 191664 bit 10bit
Encoding settings : cpuid=1111039/frame-threads=4/numa-pools=16/wpp/no-pmode/no-pme/no-psnr/no-ssim/log-level=2/input-csp=1/input-res=1920x870/interlace=0/total-frames=137797/level-idc=41/high-tier=1/uhd-bd=0/ref=5/no-allow-non-conformance/no-repeat-t_heads/annexb/no-aud/no-hrd/info/hash=0/no-temporal-layers/open-gop/min-keyint=23/keyint=240/gop-lookahead=0/bframes=12/b-adapt=2/b-pyramid/bframe-bias=0/rc-lookahead=60/lookahead-slices=1/scenecut=40/radl=0/no-splice/no-intra-refresh/ctu=32/min-cu-size=8/rect/amp/max-tu-size=32/tu-inter-depth=4/tu-intra-depth=4/limit-tu=1/rdoq-level=2/dynamic-rd=0.00/no-ssim-rd/signhide/no-tskip/nr-intra=0/nr-inter=0/no-constrained-intra/no-strong-intra-smoothing/max-merge=4/limit-refs=3/limit-modes/me=3/subme=7/merange=57/temporal-mvp/weightp/weightb/no-analyze-src-pics/deblock=-3: -3/no-sao/no-sao-non-deblock/rd=6/no-early-skip/no-rskip/no-fast-intra/no-tskip-fast/no-cu-lossless/no-b-intra/no-splitrd-skip/rdpenalty=0/psy-rd=2.00/psy-rdoq=1.00/no-rd-refine/no-lossless/cbqpoffs=0/crqpoffs=0/rc=crf/crf=19.0/qcomp=0.70/qpstep=4/stats-write=0/stats-read=0/vbv-maxrate=50000/vbv-bufsize=50000/vbv-init=0.9/crf-max=0.0/crf-min=0.0/ipratio=1.40/pbratio=1.30/aq-mode=1/aq-strength=1.00/no-cutree/zone-count=1/zones: /start-frame=131305/end-frame=137796/qp=35/no-strict-cbr/qg-size=32/no-rc-grain/qpmax=69/qpmin=0/no-const-vbv/sar=1/overscan=0/videoformat=5/range=0/colorprim=1/transfer=1/colormatrix=1/chromaloc=0/display-window=0/max-cll=0, 0/min-luma=0/max-luma=1023/log2-max-poc-lsb=8/vui-timing-info/vui-hrd-info/slices=1/no-opt-qp-pps/no-opt-ref-list-length-pps/no-multi-pass-opt-rps/scenecut-bias=0.05/no-opt-cu-delta-qp/no-aq-motion/no-hdr/no-hdr-opt/no-dhdr10-opt/no-idr-recovery-sei/analysis-reuse-level=5/scale-factor=0/refine-intra=0/refine-inter=0/refine-mv=0/refine-ctu-distortion=0/no-limit-sao/ctu-info=0/no-lowpass-dct/refine-analysis-type=0/copy-pic=1/max-ausize-factor=1.0/no-dynamic-refine/no-single-sei/hevc-aq/qp-adaptation-range=2.00
Language : English
Default : Yes
Forced : No
Color range : Limited
Color primaries : BT.709
Transfer characteristics : BT.709
Matrix coefficients : BT.709
Audio #1
ID : 2
Format : AC-3
Format/Info : Audio Coding 3
Format profile : Dolby Digital
Mode extension : CM (complete main)
Format settings, Endianness : Big
Codec ID : A_AC3
Duration : 1 h 35 min
Bit rate mode : Constant
Bit rate : 192 kb/s
Channel(s) : 2 channels
Channel positions : Front: L R
Sampling rate : 48.0 kHz
Frame rate : 31.250 FPS (1536 spf)
Compression mode : Lossy
Stream size : 132 MiB (1%)
Title : DUB R5
Language : Russian
Default : Yes
Forced : No
Audio #2
ID : 3
Format : AC-3
Format/Info : Audio Coding 3
Mode extension : CM (complete main)
Format settings, Endianness : Big
Codec ID : A_AC3
Duration : 1 h 35 min
Bit rate mode : Constant
Bit rate : 640 kb/s
Channel(s) : 6 channels
Channel positions : Front: L C R, Side: L R, LFE
Sampling rate : 48.0 kHz
Frame rate : 31.250 FPS (1536 spf)
Compression mode : Lossy
Stream size : 438 MiB (5%)
Title : MVO (Карусель)
Language : Russian
Default : No
Forced : No
Audio #3
ID : 4
Format : AC-3
Format/Info : Audio Coding 3
Mode extension : CM (complete main)
Format settings, Endianness : Big
Codec ID : A_AC3
Duration : 1 h 35 min
Bit rate mode : Constant
Bit rate : 192 kb/s
Channel(s) : 2 channels
Channel positions : Front: L R
Sampling rate : 48.0 kHz
Frame rate : 31.250 FPS (1536 spf)
Compression mode : Lossy
Stream size : 132 MiB (1%)
Title : MVO (Останкино)
Language : Russian
Default : No
Forced : No
Audio #4
ID : 5
Format : AC-3
Format/Info : Audio Coding 3
Mode extension : CM (complete main)
Format settings, Endianness : Big
Codec ID : A_AC3
Duration : 1 h 35 min
Bit rate mode : Constant
Bit rate : 640 kb/s
Channel(s) : 6 channels
Channel positions : Front: L C R, Side: L R, LFE
Sampling rate : 48.0 kHz
Frame rate : 31.250 FPS (1536 spf)
Compression mode : Lossy
Stream size : 438 MiB (5%)
Title : Original
Language : English
Default : No
Forced : No
Text #1
ID : 6
Format : UTF-8
Codec ID : S_TEXT/UTF8
Codec ID/Info : UTF-8 Plain Text
Duration : 1 h 30 min
Bit rate : 78 b/s
Count of elements : 890
Stream size : 52.0 KiB (0%)
Language : Russian
Default : No
Forced : No
Text #2
ID : 7
Format : UTF-8
Codec ID : S_TEXT/UTF8
Codec ID/Info : UTF-8 Plain Text
Duration : 1 h 34 min
Bit rate : 46 b/s
Count of elements : 882
Stream size : 32.0 KiB (0%)
Language : English
Default : No
Forced : No
Menu
00: 00: 00.000 : en:
00: 00: 43.585 : en:
00: 03: 49.187 : en:
00: 08: 09.572 : en:
00: 16: 38.872 : en:
00: 22: 46.948 : en:
00: 29: 13.752 : en:
00: 35: 07.814 : en:
00: 42: 27.253 : en:
00: 47: 03.737 : en:
00: 53: 30.123 : en:
00: 58: 59.118 : en:
01: 02: 41.007 : en:
01: 08: 17.802 : en:
01: 13: 40.999 : en:
01: 18: 13.522 : en:
01: 22: 15.347 : en:
01: 27: 37.961 : en:
01: 30: 22.083 : en:
01: 35: 47.032 : en:

Скриншоты для ознакомления



Все одноименные релизы в Клубе
Время раздачи: 24/7 (мультитрекерная раздача)
 
Уважаемый посетитель, Вы зашли на сайт как незарегистрированный пользователь. Мы рекомендуем Вам зарегистрироваться либо зайти на сайт под своим именем.

Другие новости по теме:

  • Трон: Наследие / TRON: Legacy (2010) BDRemux [H.264 / 1080p] [IMAX Edition] [hand made 16:9]
  • Трон: Наследие / TRON: Legacy (2010) BDRip [H.265 / 1080p-LQ] [10-bit]
  • Трон: Наследие / TRON: Legacy (2010) BDRip [H.264 / 720p-LQ] [IMAX]
  • Трон: Наследие / TRON: Legacy (2010) Blu-ray [H.264 / 1080p]
  • Трон: Наследие / TRON: Legacy (2010) WEB-DL [H.264 / 1080p-LQ] [Open Matte]
  • Трон: Наследие / TRON: Legacy (2010) Hybrid [H.264 / 720p] [Open Matte]
  • Трон: Наследие / TRON: Legacy (2010) BDRemux [H.264 / 1080p] [IMAX]


  • Информация
    Посетители, находящиеся в группе Гости, не могут оставлять комментарии в данной новости.
    Главная страница | Регистрация | Добавить новость | Новое на сайте Copyright © 2019. bolt.mmix.club All Rights Reserved