Подписывайся на наш канал в Telegram https://t.me/torrentok и получи доступ к торрентам без ограничений!
. bolt.mmix.club
Авторские права
con...@...Показать
Вход на сайт
Логин:
Пароль:
 
Навигация по сайту
Популярные статьи

Торрент трекер | Скачать торрент | Скачать через Торрент | Скачать торрент бесплатно | Скачать торрент без регистрации Фильмы торрент скачать Час дьявола / The Cleansing Hour (2019) BDRip [H.264 / 1080p] [MVO] [PR] торрент скачать бесплатно

Час дьявола / The Cleansing Hour (2019) BDRip [H.264 / 1080p] [MVO] [PR] торрент скачать бесплатно

Фильмы торрент скачать
Час дьявола / The Cleansing Hour (2019) BDRip [H.264 / 1080p] [MVO] [PR]Производство: США/Skubalon
Жанр: Ужасы, фэнтези
Режиссер: Дэмиен ЛеВек

Актеры
Райан Гузман, Кайл Галлнер, Аликс Анджелис, Крис Лю Кум Хой, Дэниэл Хоффман-Гилл, Эмма Холцер, Джоэнна Дэвид, Йонут Грама, Лиди Аврора Меза, Гризельда Пизена

Описание

Двое аферистов добились успеха, запустив онлайн-трансляции обрядов экзорцизма, а на самом деле каждый выпуск - это тщательно продуманная постановка. Но в этом прямом эфире им придётся иметь дело с настоящим демоном.


Возраст: 18+ (зрителям, достигшим 18 лет. запрещено для детей)
Релиз от: MediaBit
Продолжительность: 01: 34: 02
Качество видео: BDRip
Перевод: Многоголосый любительский (@MUZOBOZ@)
Субтитры: Английские
Видео: AVC/H.264, 1920x804, ~11, 2 Mbps
Аудио 1: AC3, 2 ch, 256 Kbps, русский (MVO)
Аудио 2: DTS-HD MA, 6 ch, 2400 Kbps, английский (оригинал)
Общее
Уникальный идентификатор : 73220397996994827995473119658607067600 (0x3715BC571CE2A995A3B5825B6E1341D0)
Полное имя : E: DownloadsChas.ochisceniya.2019.x264.BDRip(1080p)- MediaBit.mkv
Формат : Matroska
Версия формата : Version 4
Размер файла : 9, 20 Гбайт
Продолжительность : 1 ч. 34 м.
Режим общего битрейта : Переменный
Общий поток : 13, 9 Мбит/сек
Название фильма : Час очищения/The Cleansing Hour (2019)
Дата кодирования : UTC 2020-08-21 10: 40: 28
Программа кодирования : mkvmerge v25.0.0 (\'Prog Noir\') 64-bit
Библиотека кодирования : libebml v1.3.6 + libmatroska v1.4.9
Видео
Идентификатор : 1
Формат : AVC
Формат/Информация : Advanced Video Codec
Профиль формата : High@L4.1
Настройки формата : CABAC/5 Ref Frames
Параметр CABAC формата : Да
Параметр RefFrames формата : 5 кадров
Идентификатор кодека : V_MPEG4/ISO/AVC
Продолжительность : 1 ч. 34 м.
Битрейт : 11, 2 Мбит/сек
Ширина : 1 920 пикселей
Высота : 804 пикселя
Соотношение сторон : 2, 40: 1
Режим частоты кадров : Постоянный
Частота кадров : 23, 976 (24000/1001) кадра/сек
Цветовое пространство : YUV
Субдискретизация насыщенности : 4: 2: 0
Битовая глубина : 8 бит
Тип развёртки : Прогрессивная
Бит/(Пиксели*Кадры) : 0.303
Размер потока : 7, 43 Гбайт (81%)
Заголовок : JustWatch
Библиотека кодирования : x264 core 161 r3018 db0d417
Настройки программы : cabac=1/ref=5/deblock=1: -3: -3/analyse=0x3: 0x133/me=umh/subme=9/psy=1/psy_rd=1.00: 0.00/mixed_ref=1/me_range=16/chroma_me=1/trellis=2/8x8dct=1/cqm=0/deadzone=21, 11/fast_pskip=0/chroma_qp_offset=-2/threads=25/lookahead_threads=2/sliced_threads=0/nr=0/decimate=1/interlaced=0/bluray_compat=0/constrained_intra=0/bframes=3/b_pyramid=2/b_adapt=2/b_bias=0/direct=3/weightb=1/open_gop=0/weightp=2/keyint=250/keyint_min=23/scenecut=40/intra_refresh=0/rc_lookahead=60/rc=crf/mbtree=1/crf=17.0/qcomp=0.60/qpmin=0/qpmax=69/qpstep=4/ip_ratio=1.40/aq=1: 1.00
Язык : English
Default : Да
Forced : Нет
Аудио #1
Идентификатор : 2
Формат : AC-3
Формат/Информация : Audio Coding 3
Коммерческое название : Dolby Digital
Идентификатор кодека : A_AC3
Продолжительность : 1 ч. 34 м.
Вид битрейта : Постоянный
Битрейт : 256 Кбит/сек
Каналы : 2 канала
Channel layout : L R
Частота : 48, 0 КГц
Частота кадров : 31, 250 кадров/сек (1536 SPF)
Метод сжатия : С потерями
Размер потока : 174 Мбайт (2%)
Заголовок : MVO (@MUZOBOZ@) MediaBit
Язык : Russian
Service kind : Complete Main
Default : Да
Forced : Нет
Аудио #2
Идентификатор : 3
Формат : DTS XLL
Формат/Информация : Digital Theater Systems
Коммерческое название : DTS-HD Master Audio
Идентификатор кодека : A_DTS
Продолжительность : 1 ч. 34 м.
Вид битрейта : Переменный
Битрейт : 2 400 Кбит/сек
Каналы : 6 каналов
Channel layout : C L R Ls Rs LFE
Частота : 48, 0 КГц
Частота кадров : 93, 750 кадра/сек (512 SPF)
Битовая глубина : 16 бит
Метод сжатия : Без потерь
Размер потока : 1, 59 Гбайт (17%)
Заголовок : Original
Язык : English
Default : Нет
Forced : Нет
Текст
Идентификатор : 4
Формат : UTF-8
Идентификатор кодека : S_TEXT/UTF8
Идентификатор кодека/Информация : UTF-8 Plain Text
Продолжительность : 1 ч. 25 м.
Битрейт : 51 бит/сек
Count of elements : 1135
Размер потока : 31, 9 Кбайт (0%)
Язык : English
Default : Нет
Forced : Нет
Меню
00: 00: 00.000 : : Kapitel 01
00: 08: 11.324 : : Kapitel 02
00: 14: 08.014 : : Kapitel 03
00: 20: 48.080 : : Kapitel 04
00: 28: 01.305 : : Kapitel 05
00: 34: 16.221 : : Kapitel 06
00: 41: 57.807 : : Kapitel 07
00: 48: 49.844 : : Kapitel 08
00: 56: 34.725 : : Kapitel 09
01: 04: 50.178 : : Kapitel 10
01: 12: 03.694 : : Kapitel 11
01: 20: 29.867 : : Kapitel 12

Скриншоты для ознакомления



Все одноименные релизы в Клубе
Время раздачи: 24/7 (мультитрекерная раздача)
 
Уважаемый посетитель, Вы зашли на сайт как незарегистрированный пользователь. Мы рекомендуем Вам зарегистрироваться либо зайти на сайт под своим именем.

Другие новости по теме:

  • Час дьявола (Час очищения) / The Cleansing Hour (2019) BDRip [H.264 / 720p] [MVO]


  • Информация
    Посетители, находящиеся в группе Гости, не могут оставлять комментарии в данной новости.
    Главная страница | Регистрация | Добавить новость | Новое на сайте Copyright © 2019. bolt.mmix.club All Rights Reserved