Подписывайся на наш канал в Telegram https://t.me/torrentok и получи доступ к торрентам без ограничений!
. bolt.mmix.club
Авторские права
con...@...Показать
Вход на сайт
Логин:
Пароль:
 
Навигация по сайту
Популярные статьи

Торрент трекер | Скачать торрент | Скачать через Торрент | Скачать торрент бесплатно | Скачать торрент без регистрации Фильмы торрент скачать Водный мир / Waterworld (1995) BDRip [H.264 / 720p] [Theatrical Cut] [Remastered] торрент скачать бесплатно

Водный мир / Waterworld (1995) BDRip [H.264 / 720p] [Theatrical Cut] [Remastered] торрент скачать бесплатно

Фильмы торрент скачать
Водный мир / Waterworld (1995) BDRip [H.264 / 720p] [Theatrical Cut] [Remastered]Производство: США/Universal Pictures, Gordon Company, Davis Entertainment
Жанр: фантастика, боевик, приключения
Режиссер: Кевин Рейнольдс

Актеры
Кевин Костнер Деннис Хоппер Джинн Трипплхорн Тина Мажорино Майкл Джитер Джек Блэк Ким Коутс Чайм Джирафи Рик Авилес Р.Д. Колл

Описание

В далеком будущем полярные снега растаяли, покрыв всю Землю водой. Авторы погружают нас в фантастический мир немногочисленных людей, живущих на воде, где самым дорогим являются пресная вода, земля, еда, сигареты и т. п.
Курильщики убивают, грабят, обращают в рабство - используют двигатели внутреннего сгорания. Все остальные пытаются выжить, кто как может, а Кевин Костнер плавает сам по себе на своей фантастической лодке, но объединяет их всех одно - все они ищут остров.
В одной из колоний живут очень красивая женщина и девочка с татуировкой на спине. А татуировка эта - часть карты, на которой и указан этот остров. Естественно, за ней и охотятся курильщики...


Возраст: 12+ (зрителям, достигшим 12 лет)
Рейтинг MPAA: PG-13 (детям до 13 лет просмотр нежелателен)
Продолжительность: 02: 15: 06
Качество видео: BDRip
Перевод: дублированный, многоголосый профессиональный, двухголосый профессиональный, авторский
Субтитры: русские, английские
Видео: AVC/H.264, 1280x692, ~11.7 mbps
Аудио 1: AC3, 6 ch, 448 kbps, Русский (DVO Премьер Видео)
Аудио 2: AC3, 6 ch, 384 kbps, Русский (MVO Киномания)
Аудио 3: AC3, 2 ch, 192 kbps, Русский (DUB SDI Media)
Аудио 4: AC3, 6 ch, 448 kbps, Русский (MVO ОРТ)
Аудио 5: AC3, 6 ch, 448 kbps, Русский (AVO А. Гаврилов)
Аудио 6: AC3, 6 ch, 448 kbps, Русский (AVO Ю. Живов)
Аудио 7: AC3, 6 ch, 448 kbps, Русский (AVO Д. Пучков, Goblin)
Аудио 8: AC3, 6 ch, 448 kbps, Русский (AVO С. Визгунов)
Аудио 9: AC3, 6 ch, 448 kbps, Английский
Общее
Уникальный идентификатор : 190759751035149960220001302356255133460 (0x8F82FDDE19E66630B2B7023D50E54F14)
Полное имя : F: CINEMAWaterWorld.1995.BDRip.720p.Theatrical.Cut.Remastered.mkv
Формат : Matroska
Версия формата : Version 4
Размер файла : 14, 5 Гбайт
Продолжительность : 2 ч. 15 м.
Общий поток : 15, 4 Мбит/сек
Название фильма : Waterworld (1995)
Дата кодирования : UTC 2020-08-23 04: 28: 48
Программа кодирования : mkvmerge v8.2.0 (\'World of Adventure\') 64bit
Библиотека кодирования : libebml v1.3.1 + libmatroska v1.4.2
Видео
Идентификатор : 1
Формат : AVC
Формат/Информация : Advanced Video Codec
Профиль формата : High@L4.1
Настройки формата : CABAC/9 Ref Frames
Параметр CABAC формата : Да
Параметр RefFrames формата : 9 кадров
Идентификатор кодека : V_MPEG4/ISO/AVC
Продолжительность : 2 ч. 15 м.
Битрейт : 11, 7 Мбит/сек
Ширина : 1 280 пикселей
Высота : 692 пикселя
Соотношение сторон : 1, 85: 1
Режим частоты кадров : Постоянный
Частота кадров : 23, 976 (24000/1001) кадра/сек
Цветовое пространство : YUV
Субдискретизация насыщенности : 4: 2: 0
Битовая глубина : 8 бит
Тип развёртки : Прогрессивная
Бит/(Пиксели*Кадры) : 0.550
Размер потока : 11, 0 Гбайт (76%)
Заголовок : Waterworld
Библиотека кодирования : x264 core 152 r2851kMod ba24899
Настройки программы : cabac=1/ref=9/deblock=1: -2: -2/analyse=0x3: 0x113/me=umh/subme=11/psy=1/fade_compensate=0.00/psy_rd=1.00: 0.00/mixed_ref=1/me_range=64/chroma_me=1/trellis=2/8x8dct=1/cqm=0/deadzone=21, 11/fast_pskip=0/chroma_qp_offset=-2/threads=6/lookahead_threads=1/sliced_threads=0/nr=0/decimate=0/interlaced=0/bluray_compat=0/constrained_intra=0/bframes=16/b_pyramid=2/b_adapt=2/b_bias=0/direct=3/weightb=1/open_gop=0/weightp=2/keyint=240/keyint_min=23/scenecut=40/intra_refresh=0/rc_lookahead=40/rc=2pass/mbtree=0/bitrate=11690/ratetol=1.0/qcomp=0.60/qpmin=0/qpmax=69/qpstep=4/cplxblur=20.0/qblur=0.5/vbv_maxrate=50000/vbv_bufsize=62500/nal_hrd=none/filler=0/ip_ratio=1.25/pb_ratio=1.30/aq=3: 0.70
Язык : English
Default : Да
Forced : Нет
Цветовой диапазон : Limited
Основные цвета : BT.709
Характеристики трансфера : BT.709
Коэффициенты матрицы : BT.709
Аудио #1
Идентификатор : 2
Формат : AC-3
Формат/Информация : Audio Coding 3
Коммерческое название : Dolby Digital
Идентификатор кодека : A_AC3
Продолжительность : 2 ч. 15 м.
Вид битрейта : Постоянный
Битрейт : 448 Кбит/сек
Каналы : 6 каналов
Channel layout : L R C LFE Ls Rs
Частота : 48, 0 КГц
Частота кадров : 31, 250 кадров/сек (1536 SPF)
Метод сжатия : С потерями
Размер потока : 433 Мбайт (3%)
Заголовок : DVO Премьер Видео
Язык : Russian
Service kind : Complete Main
Default : Да
Forced : Нет
Аудио #2
Идентификатор : 3
Формат : AC-3
Формат/Информация : Audio Coding 3
Коммерческое название : Dolby Digital
Идентификатор кодека : A_AC3
Продолжительность : 2 ч. 15 м.
Вид битрейта : Постоянный
Битрейт : 384 Кбит/сек
Каналы : 6 каналов
Channel layout : L R C LFE Ls Rs
Частота : 48, 0 КГц
Частота кадров : 31, 250 кадров/сек (1536 SPF)
Метод сжатия : С потерями
Размер потока : 371 Мбайт (2%)
Заголовок : MVO Киномания
Язык : Russian
Service kind : Complete Main
Default : Нет
Forced : Нет
Аудио #3
Идентификатор : 4
Формат : AC-3
Формат/Информация : Audio Coding 3
Коммерческое название : Dolby Digital
Идентификатор кодека : A_AC3
Продолжительность : 2 ч. 15 м.
Вид битрейта : Постоянный
Битрейт : 192 Кбит/сек
Каналы : 2 канала
Channel layout : L R
Частота : 48, 0 КГц
Частота кадров : 31, 250 кадров/сек (1536 SPF)
Метод сжатия : С потерями
Размер потока : 186 Мбайт (1%)
Заголовок : DUB SDI Media
Язык : Russian
Service kind : Complete Main
Default : Нет
Forced : Нет
Аудио #4
Идентификатор : 5
Формат : AC-3
Формат/Информация : Audio Coding 3
Коммерческое название : Dolby Digital
Идентификатор кодека : A_AC3
Продолжительность : 2 ч. 15 м.
Вид битрейта : Постоянный
Битрейт : 448 Кбит/сек
Каналы : 6 каналов
Channel layout : L R C LFE Ls Rs
Частота : 48, 0 КГц
Частота кадров : 31, 250 кадров/сек (1536 SPF)
Метод сжатия : С потерями
Размер потока : 433 Мбайт (3%)
Заголовок : MVO ОРТ
Язык : Russian
Service kind : Complete Main
Default : Нет
Forced : Нет
Аудио #5
Идентификатор : 6
Формат : AC-3
Формат/Информация : Audio Coding 3
Коммерческое название : Dolby Digital
Идентификатор кодека : A_AC3
Продолжительность : 2 ч. 15 м.
Вид битрейта : Постоянный
Битрейт : 448 Кбит/сек
Каналы : 6 каналов
Channel layout : L R C LFE Ls Rs
Частота : 48, 0 КГц
Частота кадров : 31, 250 кадров/сек (1536 SPF)
Метод сжатия : С потерями
Размер потока : 433 Мбайт (3%)
Заголовок : AVO А. Гаврилов
Язык : Russian
Service kind : Complete Main
Default : Нет
Forced : Нет
Аудио #6
Идентификатор : 7
Формат : AC-3
Формат/Информация : Audio Coding 3
Коммерческое название : Dolby Digital
Идентификатор кодека : A_AC3
Продолжительность : 2 ч. 15 м.
Вид битрейта : Постоянный
Битрейт : 448 Кбит/сек
Каналы : 6 каналов
Channel layout : L R C LFE Ls Rs
Частота : 48, 0 КГц
Частота кадров : 31, 250 кадров/сек (1536 SPF)
Метод сжатия : С потерями
Размер потока : 433 Мбайт (3%)
Заголовок : AVO Ю. Живов
Язык : Russian
Service kind : Complete Main
Default : Нет
Forced : Нет
Аудио #7
Идентификатор : 8
Формат : AC-3
Формат/Информация : Audio Coding 3
Коммерческое название : Dolby Digital
Идентификатор кодека : A_AC3
Продолжительность : 2 ч. 15 м.
Вид битрейта : Постоянный
Битрейт : 448 Кбит/сек
Каналы : 6 каналов
Channel layout : L R C LFE Ls Rs
Частота : 48, 0 КГц
Частота кадров : 31, 250 кадров/сек (1536 SPF)
Метод сжатия : С потерями
Размер потока : 433 Мбайт (3%)
Заголовок : AVO Д. Пучков, Goblin
Язык : Russian
Service kind : Complete Main
Default : Нет
Forced : Нет
Аудио #8
Идентификатор : 9
Формат : AC-3
Формат/Информация : Audio Coding 3
Коммерческое название : Dolby Digital
Идентификатор кодека : A_AC3
Продолжительность : 2 ч. 15 м.
Вид битрейта : Постоянный
Битрейт : 448 Кбит/сек
Каналы : 6 каналов
Channel layout : L R C LFE Ls Rs
Частота : 48, 0 КГц
Частота кадров : 31, 250 кадров/сек (1536 SPF)
Метод сжатия : С потерями
Размер потока : 433 Мбайт (3%)
Заголовок : AVO С. Визгунов
Язык : Russian
Service kind : Complete Main
Default : Нет
Forced : Нет
Аудио #9
Идентификатор : 10
Формат : AC-3
Формат/Информация : Audio Coding 3
Коммерческое название : Dolby Digital
Идентификатор кодека : A_AC3
Продолжительность : 2 ч. 15 м.
Вид битрейта : Постоянный
Битрейт : 448 Кбит/сек
Каналы : 6 каналов
Channel layout : L R C LFE Ls Rs
Частота : 48, 0 КГц
Частота кадров : 31, 250 кадров/сек (1536 SPF)
Метод сжатия : С потерями
Размер потока : 433 Мбайт (3%)
Заголовок : Original
Язык : English
Service kind : Complete Main
Default : Нет
Forced : Нет
Текст #1
Идентификатор : 11
Формат : UTF-8
Идентификатор кодека : S_TEXT/UTF8
Идентификатор кодека/Информация : UTF-8 Plain Text
Продолжительность : 2 ч. 3 м.
Битрейт : 56 бит/сек
Count of elements : 1042
Размер потока : 51, 4 Кбайт (0%)
Язык : Russian
Default : Нет
Forced : Нет
Текст #2
Идентификатор : 12
Формат : UTF-8
Идентификатор кодека : S_TEXT/UTF8
Идентификатор кодека/Информация : UTF-8 Plain Text
Продолжительность : 2 ч. 8 м.
Битрейт : 52 бит/сек
Count of elements : 1001
Размер потока : 49, 8 Кбайт (0%)
Заголовок : Goblin
Язык : Russian
Default : Нет
Forced : Нет
Текст #3
Идентификатор : 13
Формат : UTF-8
Идентификатор кодека : S_TEXT/UTF8
Идентификатор кодека/Информация : UTF-8 Plain Text
Продолжительность : 2 ч. 3 м.
Битрейт : 37 бит/сек
Count of elements : 1156
Размер потока : 33, 7 Кбайт (0%)
Язык : English
Default : Нет
Forced : Нет
Меню
00: 00: 00.000 : en: 1. Main Title; The New World
00: 06: 27.988 : en: 2. Smokers!
00: 09: 55.028 : en: 3. A Stranger In Town
00: 25: 32.841 : en: 4. Dead Out Of the Sun
00: 53: 19.715 : en: 5. Smokers In the Sky
00: 59: 35.923 : en: 6. Rough Trade
01: 15: 03.267 : en: 7. The Barter Outpost
01: 21: 21.603 : en: 8. Down To Dryland
01: 25: 17.214 : en: 9. Going Under
01: 39: 29.231 : en: 10. The Coming Of The Mariner
01: 43: 47.571 : en: 11. No Mercy
01: 49: 07.017 : en: 12. Smoke On the Water
01: 55: 17.512 : en: 13. The Death of The Deez
01: 57: 05.370 : en: 14. The Deacon\'s Last Shot
01: 59: 39.107 : en: 15. Home
02: 06: 30.518 : en: 16. End Titles

Скриншоты для ознакомления



Все одноименные релизы в Клубе
Время раздачи: c 5 до 19 мск (до появления первых 3-5 скачавших)
 
Уважаемый посетитель, Вы зашли на сайт как незарегистрированный пользователь. Мы рекомендуем Вам зарегистрироваться либо зайти на сайт под своим именем.

Другие новости по теме:

  • Водный мир / Waterworld (1995) BDRemux [H.264 / 1080p] скачать через торрент бесплатно
  • Водный мир / Waterworld (1995) BDRip [H.265 / 1080p-LQ]
  • Водный мир / Waterworld (1995) BDRip [H.264] [Theatrical Cut] [REMASTERED]
  • Водный мир / Waterworld (1995) BDRip [H.264] [Ulysses Cut, Remastered]
  • Водный мир / Waterworld (1995) AC3 2.0 [TV1000] [Theatrical Cut]
  • Водный мир / Waterworld (1995) UHD BDRemux [H.265 / 2160p] [4K, HDR, 10-bit] [Theatrical Cut] [PR]
  • Водный мир / Waterworld (1995) UHD Blu-ray [H.265 / 2160p] [4K, HDR, 10-bit] [2-in-1: Theatrical & Unrated Cut] [EUR]
  • Водный мир / Waterworld (1995) BDRemux [H.264 / 1080p] [Ulysses Cut, Remastered] [GBR Transfer]


  • Информация
    Посетители, находящиеся в группе Гости, не могут оставлять комментарии в данной новости.
    Главная страница | Регистрация | Добавить новость | Новое на сайте Copyright © 2019. bolt.mmix.club All Rights Reserved