Подписывайся на наш канал в Telegram https://t.me/torrentok и получи доступ к торрентам без ограничений!
. bolt.mmix.club
Авторские права
con...@...Показать
Вход на сайт
Логин:
Пароль:
 
Навигация по сайту
Популярные статьи

Торрент трекер | Скачать торрент | Скачать через Торрент | Скачать торрент бесплатно | Скачать торрент без регистрации Фильмы торрент скачать Братство волка / Le Pacte Des Loups (2001) HD-DVDRip [H.265 / 1080p] [10-bit] [Directors Cut] торрент скачать бесплатно

Братство волка / Le Pacte Des Loups (2001) HD-DVDRip [H.265 / 1080p] [10-bit] [Directors Cut] торрент скачать бесплатно

Фильмы торрент скачать
Братство волка / Le Pacte Des Loups (2001) HD-DVDRip [H.265 / 1080p] [10-bit] [Directors Cut]Производство: Франция/Canal+, Davis-Films, Eskwad
Жанр: ужасы, боевик, триллер, драма, приключения
Режиссер: Кристоф Ганс

Актеры
Марк Дакаскос, Венсан Кассель, Моника Беллуччи, Самюэль Ле Бьян, Эмили Декьенн, Жереми Ренье, Жан Янн, Жан-Франсуа Стевенен, Жак Перрен, Йохан Лейзен

Описание
Франция, вторая половина XVIII века. В местечке под названием Жевадан появляется страшное существо, прозванное жителями Зверем, оно безжалостно убивает женщин и детей. Зверь кажется неуловимым, уходя от многочисленных облав, его не берут пули, он исчезает так же внезапно как появляется, и только немногие выжившие способны описать его внешность.


Возраст: 16+ (зрителям, достигшим 16 лет)
Рейтинг MPAA: R (лицам до 17 лет обязательно присутствие взрослого)
Релиз от: HANNIBAL (HEVC-CLUB)
Продолжительность: 02: 30: 19
Качество видео: HD-DVDRip
Перевод: Дублированный+(MVO на расширенный сцены), авторский
Субтитры: Русские (форсированные, полные), английские
Видео: HEVC/H.265, 1920x824, ~9142 Kbps
Аудио 1: AC3, 6 ch, 448 Kbps - Русский, дублированный+(MVO на расширенный сцены)
Аудио 2: AC3, 6 ch, 448 Kbps - Русский, AVO (Сербин)
Аудио 3: AC3, 6 ch, 384 Kbps - Русский, AVO (Гаврилов)
Аудио 4: AC3, 6 ch, 640 Kbps - Французский
================================
x265 info: frame I: 2138, Avg QP: 17.88 kb/s: 23297.28
x265 info: frame P: 50814, Avg QP: 19.35 kb/s: 15967.87
x265 info: frame B: 163311, Avg QP: 21.33 kb/s: 6831.55
x265 info: Weighted P-Frames: Y: 15.6% UV: 13.0%
x265 info: Weighted B-Frames: Y: 16.0% UV: 11.4%
x265 info: consecutive B-frames: 7.3% 5.4% 7.7% 53.4% 7.5% 16.9% 1.0% 0.7% 0.1% 0.2%
================================
Общее
Уникальный идентификатор : 90585646897248524421264149320721151095 (0x4426293695124E235E6DC712B432B477)
Полное имя : R: Le Pacte Des Loups (2001) BDRip-HEVC 1080p 10 bit Director\'s Cut.mkv
Формат : Matroska
Версия формата : Version 4/Version 2
Размер файла : 11, 6 Гбайт
Продолжительность : 2 ч. 30 м.
Общий поток : 11, 1 Мбит/сек
Название фильма : hannibal (hevc-club)
Дата кодирования : UTC 2020-08-21 13: 18: 02
Программа кодирования : mkvmerge v47.0.0 (\'Black Flag\') 64-bit
Библиотека кодирования : libebml v1.3.10 + libmatroska v1.5.2
Обложка : Yes
Attachments : cover.jpg
Видео
Идентификатор : 1
Формат : HEVC
Формат/Информация : High Efficiency Video Coding
Профиль формата : Main10@L4.1@High
Идентификатор кодека : V_MPEGH/ISO/HEVC
Продолжительность : 2 ч. 30 м.
Битрейт : 9142 Кбит/сек
Ширина : 1920 пикселей
Высота : 824 пикселя
Соотношение сторон : 2, 35: 1
Режим частоты кадров : Постоянный
Частота кадров : 23, 976 (23976/1000) кадра/сек
Частота кадров в оригинале : 23, 976 (24000/1001) кадра/сек
Цветовое пространство : YUV
Субдискретизация насыщенности : 4: 2: 0
Битовая глубина : 10 бит
Бит/(Пиксели*Кадры) : 0.241
Размер потока : 9, 60 Гбайт (83%)
Библиотека кодирования : x265 3.3+33-04275ae58030: WindowsGCC 10.1.064 bit 10bit
Настройки программы : cpuid=1111039/frame-threads=3/numa-pools=12/wpp/no-pmode/no-pme/no-psnr/no-ssim/log-level=2/input-csp=1/input-res=1920x824/interlace=0/total-frames=216263/level-idc=41/high-tier=1/uhd-bd=0/ref=5/no-allow-non-conformance/no-repeat-t_heads/annexb/no-aud/no-hrd/info/hash=0/no-temporal-layers/open-gop/min-keyint=23/keyint=240/gop-lookahead=0/bframes=9/b-adapt=2/b-pyramid/bframe-bias=0/rc-lookahead=60/lookahead-slices=4/scenecut=40/hist-scenecut=0/radl=0/no-splice/no-intra-refresh/ctu=32/min-cu-size=8/rect/amp/max-tu-size=32/tu-inter-depth=4/tu-intra-depth=4/limit-tu=0/rdoq-level=2/dynamic-rd=0.00/no-ssim-rd/signhide/no-tskip/nr-intra=0/nr-inter=0/no-constrained-intra/no-strong-intra-smoothing/max-merge=5/limit-refs=0/no-limit-modes/me=3/subme=7/merange=57/temporal-mvp/no-frame-dup/no-hme/weightp/weightb/no-analyze-src-pics/deblock=0: 0/no-sao/no-sao-non-deblock/rd=6/selective-sao=0/no-early-skip/no-rskip/no-fast-intra/no-tskip-fast/no-cu-lossless/b-intra/no-splitrd-skip/rdpenalty=0/psy-rd=2.00/psy-rdoq=1.00/no-rd-refine/no-lossless/cbqpoffs=0/crqpoffs=0/rc=crf/crf=20.0/qcomp=0.70/qpstep=4/stats-write=0/stats-read=0/vbv-maxrate=50000/vbv-bufsize=50000/vbv-init=0.9/crf-max=0.0/crf-min=0.0/ipratio=1.40/pbratio=1.30/aq-mode=2/aq-strength=1.00/no-cutree/zone-count=0/no-strict-cbr/qg-size=32/no-rc-grain/qpmax=69/qpmin=0/no-const-vbv/sar=1/overscan=0/videoformat=5/range=0/colorprim=1/transfer=1/colormatrix=1/chromaloc=0/display-window=0/cll=0, 0/min-luma=0/max-luma=1023/log2-max-poc-lsb=8/vui-timing-info/vui-hrd-info/slices=1/no-opt-qp-pps/no-opt-ref-list-length-pps/no-multi-pass-opt-rps/scenecut-bias=0.05/hist-threshold=0.01/no-opt-cu-delta-qp/no-aq-motion/no-hdr10/no-hdr10-opt/no-dhdr10-opt/no-idr-recovery-sei/analysis-reuse-level=0/analysis-save-reuse-level=0/analysis-load-reuse-level=0/scale-factor=0/refine-intra=0/refine-inter=0/refine-mv=1/refine-ctu-distortion=0/no-limit-sao/ctu-info=0/no-lowpass-dct/refine-analysis-type=0/copy-pic=1/max-ausize-factor=1.0/no-dynamic-refine/no-single-sei/no-hevc-aq/no-svt/no-field/qp-adaptation-range=1.00/no-scenecut-aware-qpconformance-window-offsets/right=0/bottom=0/decoder-max-rate=0
Default : Да
Forced : Нет
Цветовой диапазон : Limited
Основные цвета : BT.709
Характеристики трансфера : BT.709
Коэффициенты матрицы : BT.709
Аудио #1
Идентификатор : 2
Формат : AC-3
Формат/Информация : Audio Coding 3
Идентификатор кодека : A_AC3
Продолжительность : 2 ч. 30 м.
Вид битрейта : Постоянный
Битрейт : 448 Кбит/сек
Каналы : 6 каналов
Расположение каналов : Front: L C R, Side: L R, LFE
Частота : 48, 0 КГц
Частота кадров : 31, 250 кадров/сек (1536 SPF)
Битовая глубина : 16 бит
Метод сжатия : С потерями
Размер потока : 482 Мбайт (4%)
Заголовок : Дубляж ( многоголосый на эпизоды режиссерской версии )
Язык : Russian
ServiceKind/String : Complete Main
Default : Да
Forced : Нет
Аудио #2
Идентификатор : 3
Формат : AC-3
Формат/Информация : Audio Coding 3
Идентификатор кодека : A_AC3
Продолжительность : 2 ч. 30 м.
Вид битрейта : Постоянный
Битрейт : 448 Кбит/сек
Каналы : 6 каналов
Расположение каналов : Front: L C R, Side: L R, LFE
Частота : 48, 0 КГц
Частота кадров : 31, 250 кадров/сек (1536 SPF)
Битовая глубина : 16 бит
Метод сжатия : С потерями
Размер потока : 482 Мбайт (4%)
Заголовок : AVO ( Сербин )
Язык : Russian
ServiceKind/String : Complete Main
Default : Нет
Forced : Нет
Аудио #3
Идентификатор : 4
Формат : AC-3
Формат/Информация : Audio Coding 3
Идентификатор кодека : A_AC3
Продолжительность : 2 ч. 30 м.
Вид битрейта : Постоянный
Битрейт : 384 Кбит/сек
Каналы : 6 каналов
Расположение каналов : Front: L C R, Side: L R, LFE
Частота : 48, 0 КГц
Частота кадров : 31, 250 кадров/сек (1536 SPF)
Битовая глубина : 16 бит
Метод сжатия : С потерями
Размер потока : 413 Мбайт (3%)
Заголовок : AVO ( Гаврилов )
Язык : Russian
ServiceKind/String : Complete Main
Default : Нет
Forced : Нет
Аудио #4
Идентификатор : 5
Формат : AC-3
Формат/Информация : Audio Coding 3
Идентификатор кодека : A_AC3
Продолжительность : 2 ч. 30 м.
Вид битрейта : Постоянный
Битрейт : 640 Кбит/сек
Каналы : 6 каналов
Расположение каналов : Front: L C R, Side: L R, LFE
Частота : 48, 0 КГц
Частота кадров : 31, 250 кадров/сек (1536 SPF)
Битовая глубина : 16 бит
Метод сжатия : С потерями
Размер потока : 688 Мбайт (6%)
Язык : French
ServiceKind/String : Complete Main
Default : Нет
Forced : Нет
Текст #1
Идентификатор : 6
Формат : UTF-8
Идентификатор кодека : S_TEXT/UTF8
Идентификатор кодека/Информация : UTF-8 Plain Text
Продолжительность : 13 м. 2 с.
Битрейт : 53 бит/сек
ElementCount : 86
Размер потока : 5, 12 Кбайт (0%)
Заголовок : forced
Язык : Russian
Default : Да
Forced : Нет
Текст #2
Идентификатор : 7
Формат : UTF-8
Идентификатор кодека : S_TEXT/UTF8
Идентификатор кодека/Информация : UTF-8 Plain Text
Продолжительность : 2 ч. 22 м.
Битрейт : 63 бит/сек
ElementCount : 987
Размер потока : 66, 1 Кбайт (0%)
Язык : Russian
Default : Нет
Forced : Нет
Текст #3
Идентификатор : 8
Формат : UTF-8
Идентификатор кодека : S_TEXT/UTF8
Идентификатор кодека/Информация : UTF-8 Plain Text
Продолжительность : 2 ч. 20 м.
Битрейт : 30 бит/сек
ElementCount : 1245
Размер потока : 31, 5 Кбайт (0%)
Язык : English
Default : Нет
Forced : Нет
 
Уважаемый посетитель, Вы зашли на сайт как незарегистрированный пользователь. Мы рекомендуем Вам зарегистрироваться либо зайти на сайт под своим именем.

Другие новости по теме:

  • Братство волка / Le Pacte des loups (2001) HDDVDRemux (Режиссерская версия / Directors Cut) [VC-1 / 1080p]
  • Братство Волка / Brotherhood of the Wolf (2001) DVDRip
  • Братство волка / Le Pacte des loups (2001) BDRip [H.264 / 720p] [Directors Cut] [PR]


  • Информация
    Посетители, находящиеся в группе Гости, не могут оставлять комментарии в данной новости.
    Главная страница | Регистрация | Добавить новость | Новое на сайте Copyright © 2019. bolt.mmix.club All Rights Reserved