Подписывайся на наш канал в Telegram https://t.me/torrentok и получи доступ к торрентам без ограничений!
. bolt.mmix.club
Авторские права
con...@...Показать
Вход на сайт
Логин:
Пароль:
 
Навигация по сайту
Популярные статьи

Торрент трекер | Скачать торрент | Скачать через Торрент | Скачать торрент бесплатно | Скачать торрент без регистрации Фильмы торрент скачать Похищенная / A Lonely Place to Die (2011) BDRemux [H.264 / 1080p] [Fra Transfer] торрент скачать бесплатно

Похищенная / A Lonely Place to Die (2011) BDRemux [H.264 / 1080p] [Fra Transfer] торрент скачать бесплатно

Фильмы торрент скачать
Похищенная / A Lonely Place to Die (2011) BDRemux [H.264 / 1080p] [Fra Transfer]Производство: Великобритания/Carnaby International, Eigerwand Pictures
Жанр: Триллер, Криминал
Режиссер: Джулиан Джилби

Актеры
Мелисса Джордж, Карел Роден, Алек Ньюман, Эдвард Спелирс, Кейт Магоуэн, Гарри Суини

Описание

Пятеро альпинистов совершают восхождение на одну из шотландских возвышенностей. Поднявшись, они обнаруживают юную девочку, которая непонятно как оказалась одна в совершенно дикой местности...


Возраст: 16+ (зрителям, достигшим 16 лет)
Рейтинг MPAA: R (лицам до 17 лет обязательно присутствие взрослого)
Продолжительность: 01: 39: 05
Качество видео: BDRemux
Перевод: Многоголосый профессиональный, Одноголосый, Авторский
Субтитры: Русские, Английские
Видео: AVC/H.264, 1920x1080, ~35, 5 Mbps
Аудио 1: AC3, 6 ch, 448 Kbps - Русский (MVO, R5)
Аудио 2: AC3, 6 ch, 448 Kbps - Русский (VO, Дидок)
Аудио 3: DTS, 6 ch, 768 Kbps - Русский (VO, Lisitz)ненормативная лексика!
Аудио 4: DTS-HD MA, 6 ch, 2086 Kbps - Русский (AVO, Сербин)
Аудио 5: DTS-HD MA, 6 ch, 2324 Kbps - Английский
Общее
Уникальный идентификатор : 253274130249424047118463388650768523775 (0xBE8AD2BA85A1E638846A00F1A97961FF)
Полное имя : C: Похищенная.2011.Blu-Ray.Remux.(1080p).mkv
Формат : Matroska
Версия формата : Version 2
Размер файла : 28, 8 Гбайт
Продолжительность : 1 ч. 39 м.
Режим общего битрейта : Переменный
Общий поток : 41, 6 Мбит/сек
Дата кодирования : UTC 2013-11-29 19: 05: 09
Программа кодирования : mkvmerge v5.8.0 (\'No Sleep/Pillow\') built on Sep 2 2012 15: 37: 04
Библиотека кодирования : libebml v1.2.3 + libmatroska v1.3.0
Attachments : poster.jpg
Видео
Идентификатор : 1
Формат : AVC
Формат/Информация : Advanced Video Codec
Профиль формата : High@L4.1
Настройки формата : CABAC/4 Ref Frames
Параметр CABAC формата : Да
Параметр RefFrames формата : 4 кадра
Режим смешивания : Container profile=@0.0
Идентификатор кодека : V_MPEG4/ISO/AVC
Продолжительность : 1 ч. 39 м.
Вид битрейта : Переменный
Максимальный битрейт : 38, 0 Мбит/сек
Ширина : 1 920 пикселей
Высота : 1 080 пикселей
Соотношение сторон : 16: 9
Режим частоты кадров : Постоянный
Частота кадров : 24, 000 кадра/сек
Цветовое пространство : YUV
Субдискретизация насыщенности : 4: 2: 0
Битовая глубина : 8 бит
Тип развёртки : Прогрессивная
Default : Да
Forced : Нет
Аудио #1
Идентификатор : 2
Формат : AC-3
Формат/Информация : Audio Coding 3
Коммерческое название : Dolby Digital
Идентификатор кодека : A_AC3
Продолжительность : 1 ч. 39 м.
Вид битрейта : Постоянный
Битрейт : 448 Кбит/сек
Каналы : 6 каналов
Channel layout : L R C LFE Ls Rs
Частота : 48, 0 КГц
Частота кадров : 31, 250 кадров/сек (1536 SPF)
Метод сжатия : С потерями
Размер потока : 317 Мбайт (1%)
Заголовок : MVO, R5
Язык : Russian
Service kind : Complete Main
Default : Нет
Forced : Нет
Аудио #2
Идентификатор : 3
Формат : AC-3
Формат/Информация : Audio Coding 3
Коммерческое название : Dolby Digital
Идентификатор кодека : A_AC3
Продолжительность : 1 ч. 39 м.
Вид битрейта : Постоянный
Битрейт : 448 Кбит/сек
Каналы : 6 каналов
Channel layout : L R C LFE Ls Rs
Частота : 48, 0 КГц
Частота кадров : 31, 250 кадров/сек (1536 SPF)
Метод сжатия : С потерями
Размер потока : 317 Мбайт (1%)
Заголовок : С. Дидок
Язык : Russian
Service kind : Complete Main
Default : Нет
Forced : Нет
Аудио #3
Идентификатор : 4
Формат : DTS
Формат/Информация : Digital Theater Systems
Идентификатор кодека : A_DTS
Продолжительность : 1 ч. 39 м.
Вид битрейта : Постоянный
Битрейт : 768 Кбит/сек
Каналы : 6 каналов
Channel layout : C L R Ls Rs LFE
Частота : 48, 0 КГц
Частота кадров : 93, 750 кадра/сек (512 SPF)
Битовая глубина : 16 бит
Метод сжатия : С потерями
Размер потока : 544 Мбайт (2%)
Заголовок : Lisitz
Язык : Russian
Default : Нет
Forced : Нет
Аудио #4
Идентификатор : 5
Формат : DTS XLL
Формат/Информация : Digital Theater Systems
Коммерческое название : DTS-HD Master Audio
Идентификатор кодека : A_DTS
Продолжительность : 1 ч. 39 м.
Вид битрейта : Переменный
Каналы : 6 каналов
Channel layout : C L R Ls Rs LFE
Частота : 48, 0 КГц
Частота кадров : 93, 750 кадра/сек (512 SPF)
Битовая глубина : 16 бит
Метод сжатия : Без потерь
Заголовок : Ю. Сербин
Язык : Russian
Default : Да
Forced : Нет
Аудио #5
Идентификатор : 6
Формат : DTS XLL
Формат/Информация : Digital Theater Systems
Коммерческое название : DTS-HD Master Audio
Идентификатор кодека : A_DTS
Продолжительность : 1 ч. 39 м.
Вид битрейта : Переменный
Каналы : 6 каналов
Channel layout : C L R Ls Rs LFE
Частота : 48, 0 КГц
Частота кадров : 93, 750 кадра/сек (512 SPF)
Битовая глубина : 16 бит
Метод сжатия : Без потерь
Язык : English
Default : Нет
Forced : Нет
Текст #1
Идентификатор : 7
Формат : UTF-8
Идентификатор кодека : S_TEXT/UTF8
Идентификатор кодека/Информация : UTF-8 Plain Text
Заголовок : R5
Язык : Russian
Default : Нет
Forced : Нет
Текст #2
Идентификатор : 8
Формат : UTF-8
Идентификатор кодека : S_TEXT/UTF8
Идентификатор кодека/Информация : UTF-8 Plain Text
Заголовок : egureko, merrzavka
Язык : Russian
Default : Нет
Forced : Нет
Текст #3
Идентификатор : 9
Формат : UTF-8
Идентификатор кодека : S_TEXT/UTF8
Идентификатор кодека/Информация : UTF-8 Plain Text
Заголовок : SDH
Язык : English
Default : Нет
Forced : Нет
Меню
00: 00: 00.000 : : Chapter 01
00: 07: 56.416 : : Chapter 02
00: 12: 04.375 : : Chapter 03
00: 15: 53.958 : : Chapter 04
00: 21: 07.208 : : Chapter 05
00: 26: 36.916 : : Chapter 06
00: 33: 18.458 : : Chapter 07
00: 36: 07.625 : : Chapter 08
00: 42: 44.916 : : Chapter 09
00: 47: 22.583 : : Chapter 10
00: 52: 15.000 : : Chapter 11
00: 57: 40.916 : : Chapter 12
01: 02: 31.583 : : Chapter 13
01: 07: 14.541 : : Chapter 14
01: 13: 14.541 : : Chapter 15
01: 17: 56.833 : : Chapter 16
01: 22: 57.208 : : Chapter 17
01: 27: 48.833 : : Chapter 18
01: 29: 57.625 : : Chapter 19
01: 34: 55.000 : : Chapter 20
 
Уважаемый посетитель, Вы зашли на сайт как незарегистрированный пользователь. Мы рекомендуем Вам зарегистрироваться либо зайти на сайт под своим именем.

Другие новости по теме:

  • Эдгар Уоллес и др. | Похищенная картина. Убийство у школьной доски. Обожатель мисс Уэст. Рубины приносят несчастье (1993) [PDF, DJVU] скачать через торрент бесплатно
  • Мария Быстрова | Похищенная ученица (2018) [FB2]
  • Мария Быстрова | Похищенная ученица (2018) [MP3]
  • Валерия Чернованова | Похищенная, или Красавица для Чудовища (2019) [FB2]
  • Лана Волкова | Похищенная, или Заложница игры (2019) [FB2]
  • Похищенная / Abducted (2020) WEB-DLRip [H.264 / 1080p-LQ] [MVO, AD]
  • Эдгар Уоллес | Похищенная картина (2020) [MP3]


  • Информация
    Посетители, находящиеся в группе Гости, не могут оставлять комментарии в данной новости.
    Главная страница | Регистрация | Добавить новость | Новое на сайте Copyright © 2019. bolt.mmix.club All Rights Reserved