Подписывайся на наш канал в Telegram https://t.me/torrentok и получи доступ к торрентам без ограничений!
. bolt.mmix.club
Авторские права
con...@...Показать
Вход на сайт
Логин:
Пароль:
 
Навигация по сайту
Популярные статьи

Торрент трекер | Скачать торрент | Скачать через Торрент | Скачать торрент бесплатно | Скачать торрент без регистрации Фильмы торрент скачать Агент Ева / Ava (2020) WEB-DL [H.264 / 1080p-LQ] [MVO] торрент скачать бесплатно

Агент Ева / Ava (2020) WEB-DL [H.264 / 1080p-LQ] [MVO] торрент скачать бесплатно

Фильмы торрент скачать
Агент Ева / Ava (2020) WEB-DL [H.264 / 1080p-LQ] [MVO]Производство: США/Freckle Films, Voltage Pictures
Жанр: Боевик, триллер, драма, криминал, детектив
Режиссер: Тейт Тейлор

Актеры
Джессика Честейн, Джон Малкович, Джесс Вейкслер, Коммон, Джина Дэвис, Колин Фаррелл, Диана Сильверс, Йоан Гриффит, Джоан Чэнь, Janelle Feigley

Описание

Она умна, красива и чрезвычайно опасна. Перемещаясь по миру словно тень, агент по имени Ева в одиночку выполняет самые сложные задания своего руководства. Когда внезапно очередная спецоперация идет не по плану, и Ева решает выйти из игры, один из влиятельных боссов секретной службы открывает на неё охоту.


Возраст: 18+ (зрителям, достигшим 18 лет. запрещено для детей)
Рейтинг MPAA: R (лицам до 17 лет обязательно присутствие взрослого)
Дата мировой премьеры: 2 июля 2020
Дата российской премьеры: 20 августа 2020 , Вольга
Продолжительность: 01: 37: 09
Качество видео: WEB-DL
Перевод: Многоголосый любительский (AlphaProject)
Субтитры: Английские
Видео: AVC/H.264, 1920х804, ~4495 Kbps
Аудио 1 : AC3, 2 ch, 192 Kbps - Русский
Аудио 2 : AC3, 6 ch, 384 Kbps - Английский
Общее
Уникальный идентификатор : 191365446138922588063876814039206273462 (0x8FF7A4F11B556940BFB75363101321B6)
Полное имя : Eva.(2020).WEB-DL.1080p.mkv
Формат : Matroska
Версия формата : Version 4
Размер файла : 3, 44 Гбайт
Продолжительность : 1 ч. 37 м.
Общий поток : 5073 Кбит/сек
Дата кодирования : UTC 2020-08-22 16: 17: 04
Программа кодирования : mkvmerge v8.3.0 (\'Over the Horizon\') 64bit
Библиотека кодирования : libebml v1.3.1 + libmatroska v1.4.2
Видео
Идентификатор : 1
Формат : AVC
Формат/Информация : Advanced Video Codec
Профиль формата : High@L4
Настройки формата : CABAC/5 Ref Frames
Параметр CABAC формата : Да
Параметр RefFrames формата : 5 кадров
Идентификатор кодека : V_MPEG4/ISO/AVC
Продолжительность : 1 ч. 37 м.
Битрейт : 4495 Кбит/сек
Ширина : 1920 пикселей
Высота : 804 пикселя
Соотношение сторон : 2, 40: 1
Режим частоты кадров : Постоянный
Частота кадров : 23, 976 (24000/1001) кадра/сек
Цветовое пространство : YUV
Субдискретизация насыщенности : 4: 2: 0
Битовая глубина : 8 бит
Тип развёртки : Прогрессивная
Бит/(Пиксели*Кадры) : 0.121
Размер потока : 3, 05 Гбайт (89%)
Язык : English
Default : Да
Forced : Нет
Цветовой диапазон : Limited
Основные цвета : BT.709
Характеристики трансфера : BT.709
Коэффициенты матрицы : BT.709
Аудио #1
Идентификатор : 2
Формат : AC-3
Формат/Информация : Audio Coding 3
Коммерческое название : Dolby Digital
Идентификатор кодека : A_AC3
Продолжительность : 1 ч. 36 м.
Вид битрейта : Постоянный
Битрейт : 192 Кбит/сек
Каналы : 2 канала
Channel layout : L R
Частота : 48, 0 КГц
Частота кадров : 31, 250 кадров/сек (1536 SPF)
Битовая глубина : 16 бит
Метод сжатия : С потерями
Размер потока : 133 Мбайт (4%)
Заголовок : MVO | AlphaProject
Язык : Russian
ServiceKind/String : Complete Main
Default : Да
Forced : Нет
Аудио #2
Идентификатор : 3
Формат : AC-3
Формат/Информация : Audio Coding 3
Коммерческое название : Dolby Digital
Идентификатор кодека : A_AC3
Продолжительность : 1 ч. 37 м.
Вид битрейта : Постоянный
Битрейт : 384 Кбит/сек
Каналы : 6 каналов
Channel layout : L R C LFE Ls Rs
Частота : 48, 0 КГц
Частота кадров : 31, 250 кадров/сек (1536 SPF)
Битовая глубина : 16 бит
Метод сжатия : С потерями
Размер потока : 267 Мбайт (8%)
Язык : English
ServiceKind/String : Complete Main
Default : Нет
Forced : Нет
Текст #1
Идентификатор : 4
Формат : UTF-8
Идентификатор кодека : S_TEXT/UTF8
Идентификатор кодека/Информация : UTF-8 Plain Text
Продолжительность : 23 м. 15 с.
Битрейт : 2 бит/сек
ElementCount : 18
Размер потока : 458 байт (0%)
Заголовок : Forced
Язык : English
Default : Нет
Forced : Нет
Текст #2
Идентификатор : 5
Формат : UTF-8
Идентификатор кодека : S_TEXT/UTF8
Идентификатор кодека/Информация : UTF-8 Plain Text
Продолжительность : 1 ч. 31 м.
Битрейт : 45 бит/сек
ElementCount : 1131
Размер потока : 30, 4 Кбайт (0%)
Заголовок : Full
Язык : English
Default : Нет
Forced : Нет
Меню
00: 00: 00.000 : : Chapter 01
00: 11: 24.851 : : Chapter 02
00: 20: 49.874 : : Chapter 03
00: 35: 00.599 : : Chapter 04
00: 42: 01.477 : : Chapter 05
00: 51: 10.274 : : Chapter 06
00: 58: 45.520 : : Chapter 07
01: 10: 52.455 : : Chapter 08
01: 18: 43.967 : : Chapter 09
01: 32: 48.227 : : Chapter 10

Скриншоты для ознакомления



Все одноименные релизы в Клубе
Время раздачи: 24/7 (круглосуточно) (до появления первых 3-5 скачавших)
 
Уважаемый посетитель, Вы зашли на сайт как незарегистрированный пользователь. Мы рекомендуем Вам зарегистрироваться либо зайти на сайт под своим именем.

Другие новости по теме:

  • Агент Ева / Ava (2020) WEB-DL [H.264 / 1080p-LQ] [MVO]
  • Агент Картер / Agent Carter (2015) WEB-DL [H.264 / 720p-LQ] (Сезон 1, серии 1-8 из 8) (Невафильм) скачать через торрент бесплатно
  • Агент Икс / Agent X (2015) WEB-DL [H.264 / 720p-LQ] (сезон 1, серия 1 из 10) (BaibaKo) (обновляемая) скачать через торрент бесплатно
  • Агент Картер / Agent Carter (2016) WEB-DL [H.264 / 720p-LQ] (сезон 2, серия 1 из 10) (LostFilm) (обновляемая)
  • Агент Картер / Agent Carter (2016) WEB-DL [H.264 / 1080p-LQ] (сезон 2, серии 1-10 из 10) LostFilm
  • Секретный агент / The Secret Agent (2016) WEB-DL [H.264 / 1080p-LQ] (сезон 1, серии 1 из 6) BaibaKo (обновляемая)
  • Секретный агент / Unlocked (2017) WEB-DL [H.264 / 1080p-LQ]
  • Секретный агент / Unlocked (2017) WEB-DL [720p] ATV


  • Информация
    Посетители, находящиеся в группе Гости, не могут оставлять комментарии в данной новости.
    Главная страница | Регистрация | Добавить новость | Новое на сайте Copyright © 2019. bolt.mmix.club All Rights Reserved