Подписывайся на наш канал в Telegram https://t.me/torrentok и получи доступ к торрентам без ограничений!
. bolt.mmix.club
Авторские права
con...@...Показать
Вход на сайт
Логин:
Пароль:
 
Навигация по сайту
Популярные статьи

Торрент трекер | Скачать торрент | Скачать через Торрент | Скачать торрент бесплатно | Скачать торрент без регистрации Фильмы торрент скачать Амулет / Amulet (2020) WEB-DL [H.264 / 1080p] торрент скачать бесплатно

Амулет / Amulet (2020) WEB-DL [H.264 / 1080p] торрент скачать бесплатно

Фильмы торрент скачать
Амулет / Amulet (2020) WEB-DL [H.264 / 1080p]Производство: Великобритания, ОАЭ/Head Gear Films, Kreo Films FZ
Жанр: Ужасы
Режиссер: Ромола Гарай

Актеры
Алек Секаряну, Имелда Стонтон, Карла Юри, Аггелики Папоулья, Пол О’Келли, Том Беннетт, Жаклин Робертс, Перри Жакс

Описание

Бывшему военному с посттравматическим синдромом по имени Томас некуда податься, поэтому приходится бомжевать в Лондоне. Однажды он получает предложение пожить в отдаленном особняке в компании молодой женщины и её смертельно больной матери. Томас помогает с ремонтом дома, постепенно влюбляется в молодую хозяйку, и ему всё больше кажется, что тут творится что-то зловещее, кроме того, мужчина теряет ощущение реальности.


Возраст: 18+ (зрителям, достигшим 18 лет. запрещено для детей)
Рейтинг MPAA: R (лицам до 17 лет обязательно присутствие взрослого)
Релиз от: ELEKTRI4KA
Продолжительность: 01: 40: 32
Качество видео: WEB-DL (AMZN)
Перевод: Дублированный (iTunes)
Субтитры: Русские, английские (SDH)
Видео: AVC/H.264, 1920x960, ~9091 Kbps
Аудио 1: AC3, 6 ch, 384 Kbps, русский (Dub)
Аудио 2: E-AC3, 6 ch, 640 Kbps, английский (оригинал)
Общее
Уникальный идентификатор : 207806650038540022184504894304134678723 (0x9C561AE0F730300890D3A14FCCB0C8C3)
Полное имя : E: DownloadsAmulet.2020.AMZN.WEB-DL.1O8Op.ELEKTRI4KA.UNIONGANG.mkv
Формат : Matroska
Версия формата : Version 4
Размер файла : 7, 03 Гбайт
Продолжительность : 1 ч. 39 м.
Общий поток : 10, 1 Мбит/сек
Название фильма : .ELEKTRI4KA.UNIONGANG.
Дата кодирования : UTC 2020-08-22 18: 42: 28
Программа кодирования : mkvmerge v8.3.0 (\'Over the Horizon\') 64bit
Библиотека кодирования : libebml v1.3.1 + libmatroska v1.4.2
Видео
Идентификатор : 1
Формат : AVC
Формат/Информация : Advanced Video Codec
Профиль формата : High@L4
Настройки формата : CABAC/4 Ref Frames
Параметр CABAC формата : Да
Параметр RefFrames формата : 4 кадра
Идентификатор кодека : V_MPEG4/ISO/AVC
Продолжительность : 1 ч. 39 м.
Вид битрейта : Постоянный
Битрейт : 9 091 Кбит/сек
Номинальный битрейт : 10 000 Кбит/сек
Ширина : 1 920 пикселей
Высота : 960 пикселей
Соотношение сторон : 2, 000
Режим частоты кадров : Постоянный
Частота кадров : 23, 976 (24000/1001) кадра/сек
Цветовое пространство : YUV
Субдискретизация насыщенности : 4: 2: 0
Битовая глубина : 8 бит
Тип развёртки : Прогрессивная
Бит/(Пиксели*Кадры) : 0.206
Размер потока : 6, 32 Гбайт (90%)
Default : Да
Forced : Нет
Цветовой диапазон : Limited
Основные цвета : BT.709
Характеристики трансфера : BT.709
Коэффициенты матрицы : BT.709
Аудио #1
Идентификатор : 2
Формат : AC-3
Формат/Информация : Audio Coding 3
Коммерческое название : Dolby Digital
Идентификатор кодека : A_AC3
Продолжительность : 1 ч. 39 м.
Вид битрейта : Постоянный
Битрейт : 384 Кбит/сек
Каналы : 6 каналов
Channel layout : L R C LFE Ls Rs
Частота : 48, 0 КГц
Частота кадров : 31, 250 кадров/сек (1536 SPF)
Метод сжатия : С потерями
Размер потока : 274 Мбайт (4%)
Заголовок : iTunes
Язык : Russian
Service kind : Complete Main
Default : Да
Forced : Да
Аудио #2
Идентификатор : 3
Формат : E-AC-3
Формат/Информация : Enhanced AC-3
Коммерческое название : Dolby Digital Plus
Идентификатор кодека : A_EAC3
Продолжительность : 1 ч. 39 м.
Вид битрейта : Постоянный
Битрейт : 640 Кбит/сек
Каналы : 6 каналов
Channel layout : L R C LFE Ls Rs
Частота : 48, 0 КГц
Частота кадров : 31, 250 кадров/сек (1536 SPF)
Метод сжатия : С потерями
Размер потока : 456 Мбайт (6%)
Язык : English
Service kind : Complete Main
Default : Нет
Forced : Нет
Текст #1
Идентификатор : 4
Формат : UTF-8
Идентификатор кодека : S_TEXT/UTF8
Идентификатор кодека/Информация : UTF-8 Plain Text
Продолжительность : 1 ч. 28 м.
Битрейт : 25 бит/сек
Count of elements : 429
Размер потока : 16, 4 Кбайт (0%)
Язык : Russian
Default : Нет
Forced : Нет
Текст #2
Идентификатор : 5
Формат : UTF-8
Идентификатор кодека : S_TEXT/UTF8
Идентификатор кодека/Информация : UTF-8 Plain Text
Продолжительность : 1 ч. 28 м.
Битрейт : 16 бит/сек
Count of elements : 446
Размер потока : 10, 8 Кбайт (0%)
Язык : English
Default : Нет
Forced : Нет
Текст #3
Идентификатор : 6
Формат : UTF-8
Идентификатор кодека : S_TEXT/UTF8
Идентификатор кодека/Информация : UTF-8 Plain Text
Продолжительность : 1 ч. 32 м.
Битрейт : 20 бит/сек
Count of elements : 613
Размер потока : 13, 7 Кбайт (0%)
Заголовок : SDH
Язык : English
Default : Нет
Forced : Нет
Меню
00: 00: 00.000 : en: 00: 00: 00.000
00: 07: 53.120 : en: 00: 07: 53.120
00: 16: 19.720 : en: 00: 16: 19.720
00: 24: 31.320 : en: 00: 24: 31.320
00: 32: 30.720 : en: 00: 32: 30.720
00: 40: 32.200 : en: 00: 40: 32.200
00: 48: 52.920 : en: 00: 48: 52.920
00: 56: 52.560 : en: 00: 56: 52.560
01: 05: 08.560 : en: 01: 05: 08.560
01: 14: 08.840 : en: 01: 14: 08.840
01: 23: 01.560 : en: 01: 23: 01.560

Скриншоты для ознакомления



Все одноименные релизы в Клубе
Время раздачи: 24/7 (мультитрекерная раздача)
 
Уважаемый посетитель, Вы зашли на сайт как незарегистрированный пользователь. Мы рекомендуем Вам зарегистрироваться либо зайти на сайт под своим именем.

Другие новости по теме:

  • Амулет / Amulet (2020) WEBRip [VO]
  • Амулет / Amulet (2020) WEB-DL [H.264 / 1080p] [DVO]
  • Amulet of Dreams / Амулет снов (2015) [Ru] Unofficial скачать через торрент бесплатно


  • Информация
    Посетители, находящиеся в группе Гости, не могут оставлять комментарии в данной новости.
    Главная страница | Регистрация | Добавить новость | Новое на сайте Copyright © 2019. bolt.mmix.club All Rights Reserved