Подписывайся на наш канал в Telegram https://t.me/torrentok и получи доступ к торрентам без ограничений!
. bolt.mmix.club
Авторские права
con...@...Показать
Вход на сайт
Логин:
Пароль:
 
Навигация по сайту
Популярные статьи

Торрент трекер | Скачать торрент | Скачать через Торрент | Скачать торрент бесплатно | Скачать торрент без регистрации Фильмы торрент скачать Синг-Синг / Sing Sing (1983) BDRip [H.264] торрент скачать бесплатно

Синг-Синг / Sing Sing (1983) BDRip [H.264] торрент скачать бесплатно

Фильмы торрент скачать
Синг-Синг / Sing Sing (1983) BDRip [H.264]Производство: Италия/Intercapital
Жанр: Комедия
Режиссер: Серджио Корбуччи
Продюсер: Марио Чекки Гори, Витторио Чекки Гори

Актеры
Адриано Челентано, Энрико Монтезано, Марина Сума, Франко Джакобини, Ванесса Редгрейв, Анджела Гудвин, Дезире Носбуш, Джанни Мина, Уго Болонья, Пьетро Де Силва, Ландо Фьорини, Орсетта Грегоретти, Родольфо Лагана, Карла Монти, Марио Донатоне

Описание

Две истории в одном фильме. Эдуардо случайно узнает, что у него приемные родители. Его настоящий отец умирает, но перед смертью он сообщает, что его матерью была Королева Английская, не успев уточнить, что это прозвище итальянской проститутки. Но Эдуардо уже несется в столицу Англии, где правит ничего не подозревающая королева...
Вторая история является пародией на очень популярный в 70-х киножанр джиалло. Детектив Богги решил завершить свою карьеру полицейского, взявшись за дело, в котором он должен оградить актрису Линду от посягательств на нее маньяка, который беспокоил ее телефонными звонками с угрозами.


Возраст: 16+ (зрителям, достигшим 16 лет)
Релиз от: Охрана (NNMCLUB)
Продолжительность: 01: 54: 41
Качество видео: BDRip
Перевод: Многоголосый профессиональный, авторский
Субтитры: Отсутствуют
Видео: AVC/H.264, 1024x552, ~2750 Kbps
Аудио 1: AC3, 2 ch, 192 Kbps, 48.0 kHz – Русский MVO, Позитив
Аудио 2: AC3, 2 ch, 192 Kbps, 48.0 kHz – Русский MVO, СТС
Аудио 3: AC3, 2 ch, 192 Kbps, 48.0 kHz – Русский AVO, Ю. Немахов
Аудио 4: AC3, 2 ch, 192 Kbps, 48.0 kHz – Итальянский
Общее
Уникальный идентификатор : 233067417418702336092726952952947484374 (0xAF5726DE1E7A63FBA1F9DEF2D8CB26D6)
Полное имя : D: DownloadsСинг-Синг. 1983. NNMCLUB.mkv
Формат : Matroska
Версия формата : Version 4/Version 2
Размер файла : 2, 82 Гбайт
Продолжительность : 1 ч. 54 м.
Общий поток : 3520 Кбит/сек
Дата кодирования : UTC 2020-08-21 23: 22: 22
Программа кодирования : mkvmerge v7.9.0 (\'Birds\') 64bit
Библиотека кодирования : libebml v1.3.1 + libmatroska v1.4.2
Видео
Идентификатор : 1
Формат : AVC
Формат/Информация : Advanced Video Codec
Профиль формата : High@L4.1
Настройки формата : CABAC/9 Ref Frames
Параметр CABAC формата : Да
Параметр RefFrames формата : 9 кадров
Идентификатор кодека : V_MPEG4/ISO/AVC
Продолжительность : 1 ч. 54 м.
Битрейт : 2750 Кбит/сек
Ширина : 1024 пикселя
Высота : 552 пикселя
Соотношение сторон : 1, 85: 1
Режим частоты кадров : Постоянный
Частота кадров : 23, 976 (24000/1001) кадра/сек
Цветовое пространство : YUV
Субдискретизация насыщенности : 4: 2: 0
Битовая глубина : 8 бит
Тип развёртки : Прогрессивная
Бит/(Пиксели*Кадры) : 0.203
Размер потока : 2, 20 Гбайт (78%)
Заголовок : Sing Sing
Библиотека кодирования : x264 core 146 r2538 121396c
Настройки программы : cabac=1/ref=9/deblock=1: -1: -1/analyse=0x3: 0x113/me=umh/subme=10/psy=1/psy_rd=1.00: 0.10/mixed_ref=1/me_range=32/chroma_me=1/trellis=2/8x8dct=1/cqm=0/deadzone=21, 11/fast_pskip=0/chroma_qp_offset=-3/threads=6/lookahead_threads=1/sliced_threads=0/nr=0/decimate=0/interlaced=0/bluray_compat=0/constrained_intra=0/bframes=8/b_pyramid=2/b_adapt=2/b_bias=0/direct=3/weightb=1/open_gop=0/weightp=2/keyint=250/keyint_min=25/scenecut=40/intra_refresh=0/rc_lookahead=60/rc=2pass/mbtree=1/bitrate=2750/ratetol=1.0/qcomp=0.60/qpmin=0/qpmax=69/qpstep=4/cplxblur=20.0/qblur=0.5/vbv_maxrate=14000/vbv_bufsize=14000/nal_hrd=none/filler=0/ip_ratio=1.40/aq=1: 1.00
Язык : Italian
Default : Да
Forced : Нет
Аудио #1
Идентификатор : 2
Формат : AC-3
Формат/Информация : Audio Coding 3
Идентификатор кодека : A_AC3
Продолжительность : 1 ч. 54 м.
Вид битрейта : Постоянный
Битрейт : 192 Кбит/сек
Каналы : 2 канала
Расположение каналов : Front: L R
Частота : 48, 0 КГц
Частота кадров : 31, 250 кадров/сек (1536 SPF)
Битовая глубина : 16 бит
Метод сжатия : С потерями
Размер потока : 158 Мбайт (5%)
Заголовок : Многоголосый закадровый, Позитив
Язык : Russian
ServiceKind/String : Complete Main
Default : Да
Forced : Нет
Аудио #2
Идентификатор : 3
Формат : AC-3
Формат/Информация : Audio Coding 3
Идентификатор кодека : A_AC3
Продолжительность : 1 ч. 54 м.
Вид битрейта : Постоянный
Битрейт : 192 Кбит/сек
Каналы : 2 канала
Расположение каналов : Front: L R
Частота : 48, 0 КГц
Частота кадров : 31, 250 кадров/сек (1536 SPF)
Битовая глубина : 16 бит
Метод сжатия : С потерями
Размер потока : 158 Мбайт (5%)
Заголовок : Многоголосый закадровый, СТС
Язык : Russian
ServiceKind/String : Complete Main
Default : Нет
Forced : Нет
Аудио #3
Идентификатор : 4
Формат : AC-3
Формат/Информация : Audio Coding 3
Идентификатор кодека : A_AC3
Продолжительность : 1 ч. 54 м.
Вид битрейта : Постоянный
Битрейт : 192 Кбит/сек
Каналы : 2 канала
Расположение каналов : Front: L R
Частота : 48, 0 КГц
Частота кадров : 31, 250 кадров/сек (1536 SPF)
Битовая глубина : 16 бит
Метод сжатия : С потерями
Размер потока : 158 Мбайт (5%)
Заголовок : Авторский, Ю. Немахов
Язык : Russian
ServiceKind/String : Complete Main
Default : Нет
Forced : Нет
Аудио #4
Идентификатор : 5
Формат : AC-3
Формат/Информация : Audio Coding 3
Идентификатор кодека : A_AC3
Продолжительность : 1 ч. 54 м.
Вид битрейта : Постоянный
Битрейт : 192 Кбит/сек
Каналы : 2 канала
Расположение каналов : Front: L R
Частота : 48, 0 КГц
Частота кадров : 31, 250 кадров/сек (1536 SPF)
Битовая глубина : 16 бит
Метод сжатия : С потерями
Размер потока : 158 Мбайт (5%)
Заголовок : Итальянский
Язык : Italian
ServiceKind/String : Complete Main
Default : Нет
Forced : Нет

Скриншоты для ознакомления




Все одноименные релизы в Клубе
Время раздачи: с 13: 00 до 01: 00 МСК, выходные круглосуточно (до появления первых 3-5 скачавших)
 
Уважаемый посетитель, Вы зашли на сайт как незарегистрированный пользователь. Мы рекомендуем Вам зарегистрироваться либо зайти на сайт под своим именем.

Другие новости по теме:

  • Синг Стрит / Sing Street (2016) BDRip [H.264 / 1080p] [EN / EN Sub]
  • Синг Стрит / Sing Street (2016) BDRemux [H.264 / 1080p] [EN / EN, Sp Sub]
  • Синг Стрит / Sing Street (2016) HDRip [H.264 / 1080p-LQ] [EN / RU Sub]
  • Синг Стрит / Sing Street (2016) BDRip [H.264 / 1080р]
  • Синг Стрит / Sing Street (2016) BDRip [H.264 / 720р]


  • Информация
    Посетители, находящиеся в группе Гости, не могут оставлять комментарии в данной новости.
    Главная страница | Регистрация | Добавить новость | Новое на сайте Copyright © 2019. bolt.mmix.club All Rights Reserved