Подписывайся на наш канал в Telegram https://t.me/torrentok и получи доступ к торрентам без ограничений!
. bolt.mmix.club
Авторские права
con...@...Показать
Вход на сайт
Логин:
Пароль:
 
Навигация по сайту
Популярные статьи

Торрент трекер | Скачать торрент | Скачать через Торрент | Скачать торрент бесплатно | Скачать торрент без регистрации Фильмы торрент скачать Шпионы по соседству / Keeping Up with the Joneses (2016) WEBRip [H.264 / 1080p-LQ] [Open Matte] [Локализованная версия] [PR] торрент скачать бесплатно

Шпионы по соседству / Keeping Up with the Joneses (2016) WEBRip [H.264 / 1080p-LQ] [Open Matte] [Локализованная версия] [PR] торрент скачать бесплатно

Фильмы торрент скачать
Шпионы по соседству / Keeping Up with the Joneses (2016) WEBRip [H.264 / 1080p-LQ] [Open Matte] [Локализованная версия] [PR]Производство: США/Fox 2000 Pictures, MacDonald/Parkes Productions
Жанр: Боевик, Комедия
Режиссер: Грег Моттола

Актеры
Зак Галифианакис, Айла Фишер, Джон Хэмм, Галь Гадот, Пэттон Освальт, Минг Жао, Мэтт Уолш, Мэрибет Монро, Майкл Лью, Кевин Данн

Описание

Супружеская пара из пригорода оказывается втянутой в международный шпионский заговор, когда обнаруживает, что их, казалось бы, идеальные новые соседи являются правительственными агентами.


Возраст: 16+ (зрителям, достигшим 16 лет)
Рейтинг MPAA: PG-13 (детям до 13 лет просмотр нежелателен)
Продолжительность: 01: 45: 20
Качество видео: WEBRip
Перевод: Дублированный
Субтитры: русские (forced hardsub, full), английские
Видео: AVC/H.264, 1920x1080, 23.976 fps, ~5120 Kbps
Аудио 1: AC3, 6 ch, 448 Kbps - Русский (DUB)
Аудио 2: AC3, 6 ch, 448 Kbps - Английский
General
Complete name : Шпионы по соседству.(2016).WEBRip.1080p.Open.Matte.mkv
Format : Matroska
Format version : Version 4
File size : 4.26 GiB
Duration : 1 h 45 min
Overall bit rate : 5 786 kb/s
Movie name : Шпионы по соседству/Keeping Up with the Joneses (2016)/Open Matte
Encoded date : UTC 2020-08-22 08: 15: 54
Writing application : mkvmerge v49.0.0 (\'Sick Of Losing Soulmates\') 64-bit
Writing library : libebml v1.4.0 + libmatroska v1.6.1
Cover : Yes
Attachments : Cover.jpg
Video
ID : 1
Format : AVC
Format/Info : Advanced Video Codec
Format profile : High@L4
Format settings : CABAC/4 Ref Frames
Format settings, CABAC : Yes
Format settings, Reference : 4 frames
Codec ID : V_MPEG4/ISO/AVC
Duration : 1 h 45 min
Bit rate : 5 120 kb/s
Width : 1 920 pixels
Height : 1 080 pixels
Display aspect ratio : 16: 9
Frame rate mode : Constant
Frame rate : 23.976 (24000/1001) FPS
Color space : YUV
Chroma subsampling : 4: 2: 0
Bit depth : 8 bits
Scan type : Progressive
Bits/(Pixel*Frame) : 0.103
Stream size : 3.60 GiB (84%)
Writing library : x264 core 148
Encoding settings : cabac=1/ref=3/deblock=1: 0: 0/analyse=0x3: 0x113/me=hex/subme=7/psy=1/psy_rd=1.00: 0.00/mixed_ref=1/me_range=16/chroma_me=1/trellis=1/8x8dct=1/cqm=0/deadzone=21, 11/fast_pskip=1/chroma_qp_offset=-2/threads=34/lookahead_threads=5/sliced_threads=0/nr=0/decimate=1/interlaced=0/bluray_compat=0/constrained_intra=0/bframes=6/b_pyramid=2/b_adapt=1/b_bias=0/direct=1/weightb=1/open_gop=0/weightp=2/keyint=50/keyint_min=26/scenecut=0/intra_refresh=0/rc_lookahead=40/rc=2pass/mbtree=1/bitrate=5120/ratetol=1.0/qcomp=0.60/qpmin=0/qpmax=69/qpstep=4/cplxblur=20.0/qblur=0.5/vbv_maxrate=7680/vbv_bufsize=20480/nal_hrd=none/filler=0/ip_ratio=1.40/aq=1: 1.00
Language : English
Default : Yes
Forced : No
Audio #1
ID : 2
Format : AC-3
Format/Info : Audio Coding 3
Commercial name : Dolby Digital
Codec ID : A_AC3
Duration : 1 h 45 min
Bit rate mode : Constant
Bit rate : 448 kb/s
Channel(s) : 6 channels
Channel layout : L R C LFE Ls Rs
Sampling rate : 48.0 kHz
Frame rate : 31.250 FPS (1536 SPF)
Compression mode : Lossy
Stream size : 337 MiB (8%)
Title : DUB
Language : Russian
Service kind : Complete Main
Default : Yes
Forced : No
Audio #2
ID : 3
Format : AC-3
Format/Info : Audio Coding 3
Commercial name : Dolby Digital
Codec ID : A_AC3
Duration : 1 h 45 min
Bit rate mode : Constant
Bit rate : 448 kb/s
Channel(s) : 6 channels
Channel layout : L R C LFE Ls Rs
Sampling rate : 48.0 kHz
Frame rate : 31.250 FPS (1536 SPF)
Compression mode : Lossy
Stream size : 337 MiB (8%)
Language : English
Service kind : Complete Main
Default : No
Forced : No
Text #1
ID : 4
Format : UTF-8
Codec ID : S_TEXT/UTF8
Codec ID/Info : UTF-8 Plain Text
Duration : 1 h 16 min
Bit rate : 1 b/s
Count of elements : 16
Stream size : 692 Bytes (0%)
Title : Forced
Language : Russian
Default : Yes
Forced : No
Text #2
ID : 5
Format : UTF-8
Codec ID : S_TEXT/UTF8
Codec ID/Info : UTF-8 Plain Text
Duration : 1 h 36 min
Bit rate : 138 b/s
Count of elements : 1987
Stream size : 98.2 KiB (0%)
Language : Russian
Default : No
Forced : No
Text #3
ID : 6
Format : UTF-8
Codec ID : S_TEXT/UTF8
Codec ID/Info : UTF-8 Plain Text
Duration : 1 h 39 min
Bit rate : 92 b/s
Count of elements : 1936
Stream size : 67.4 KiB (0%)
Language : English
Default : No
Forced : No
Text #4
ID : 7
Format : UTF-8
Codec ID : S_TEXT/UTF8
Codec ID/Info : UTF-8 Plain Text
Duration : 1 h 40 min
Bit rate : 98 b/s
Count of elements : 2119
Stream size : 72.3 KiB (0%)
Language : English
Default : No
Forced : No
Menu
00: 00: 00.000 : en: (01)00: 00: 00: 000
00: 03: 43.473 : en: (02)00: 03: 43: 473
00: 06: 41.651 : en: (03)00: 06: 41: 651
00: 09: 55.845 : en: (04)00: 09: 55: 845
00: 13: 28.182 : en: (05)00: 13: 28: 182
00: 17: 06.025 : en: (06)00: 17: 06: 025
00: 21: 07.932 : en: (07)00: 21: 07: 932
00: 26: 02.309 : en: (08)00: 26: 02: 309
00: 30: 07.513 : en: (09)00: 30: 07: 513
00: 33: 56.742 : en: (10)00: 33: 56: 742
00: 37: 43.760 : en: (11)00: 37: 43: 760
00: 40: 59.456 : en: (12)00: 40: 59: 456
00: 45: 35.148 : en: (13)00: 45: 35: 148
00: 49: 00.311 : en: (14)00: 49: 00: 311
00: 52: 35.152 : en: (15)00: 52: 35: 152
00: 55: 59.188 : en: (16)00: 55: 59: 188
01: 00: 50.228 : en: (17)01: 00: 50: 228
01: 04: 33.244 : en: (18)01: 04: 33: 244
01: 08: 47.664 : en: (19)01: 08: 47: 664
01: 12: 04.653 : en: (20)01: 12: 04: 653
01: 15: 58.554 : en: (21)01: 15: 58: 554
01: 19: 31.807 : en: (22)01: 19: 31: 807
01: 22: 46.542 : en: (23)01: 22: 46: 542
01: 25: 43.970 : en: (24)01: 25: 43: 970
01: 29: 02.295 : en: (25)01: 29: 02: 295
01: 31: 44.872 : en: (26)01: 31: 44: 872
01: 34: 18.527 : en: (27)01: 34: 18: 527
01: 37: 32.680 : en: (28)01: 37: 32: 680
01: 45: 20.063 : en: (29)01: 45: 20: 063
 
Уважаемый посетитель, Вы зашли на сайт как незарегистрированный пользователь. Мы рекомендуем Вам зарегистрироваться либо зайти на сайт под своим именем.

Другие новости по теме:

  • Шпионы по соседству / Keeping Up with the Joneses (2016) CamRip
  • Шпионы по соседству / Keeping Up with the Joneses (2016) WEB-DL [H.264 / 1080p-LQ]
  • Шпионы по соседству / Keeping Up with the Joneses (2016) WEB-DLRip [H.264]
  • Шпионы по соседству / Keeping Up with the Joneses (2016) WEB-DL [H.264 / 720p-LQ]
  • Шпионы по соседству / Keeping Up with the Joneses (2016) WEB-DLRip
  • Шпионы по соседству / Keeping Up with the Joneses (2016) WEB-DLRip [H.264][MP4|1024x428]
  • Шпионы по соседству / Keeping Up with the Joneses (2016) WEB-DL [1080p] ATV
  • Шпионы по соседству / Keeping Up with the Joneses (2016) WEB-DLRip [576p] iPad


  • Информация
    Посетители, находящиеся в группе Гости, не могут оставлять комментарии в данной новости.
    Главная страница | Регистрация | Добавить новость | Новое на сайте Copyright © 2019. bolt.mmix.club All Rights Reserved