Подписывайся на наш канал в Telegram https://t.me/torrentok и получи доступ к торрентам без ограничений!
. bolt.mmix.club
Авторские права
con...@...Показать
Вход на сайт
Логин:
Пароль:
 
Навигация по сайту
Популярные статьи

Торрент трекер | Скачать торрент | Скачать через Торрент | Скачать торрент бесплатно | Скачать торрент без регистрации Фильмы торрент скачать Супер 8 / Super 8 (2011) BDRip [H.265 / 1080p] [10-bit] торрент скачать бесплатно

Супер 8 / Super 8 (2011) BDRip [H.265 / 1080p] [10-bit] торрент скачать бесплатно

Фильмы торрент скачать
Супер 8 / Super 8 (2011) BDRip [H.265 / 1080p] [10-bit]Производство: США/Amblin Entertainment, Bad Robot, Paramount Pictures
Жанр: Фантастика, триллер, детектив
Режиссер: Джей Джей Абрамс

Актеры
Джоэль Кортни, Эль Фаннинг, Райли Гриффитс, Райан Ли, Гэбриел Бассо, Захари Миллс, Кайл Чандлер, Джессика Так, Джоэль МакКиннон Миллер, Рон Элдард

Описание

Летом 1979 года несколько подростков из маленького городка, снимавшие любительский фильм на камеру Супер 8, стали свидетелями железнодорожной катастрофы. И вскоре они начинают подозревать, что это не было просто несчастным случаем. Странные исчезновения и необъяснимые события начинают происходить в городке, и местный шериф пытается разгадать их тайну — что-то куда более ужасающее, чем все могли себе представить.


Возраст: 16+ (зрителям, достигшим 16 лет)
Рейтинг MPAA: PG-13 (детям до 13 лет просмотр нежелателен)
Релиз от: KORSAR
Продолжительность: 01: 51: 48
Качество видео: BDRip
Перевод: Дублированный, авторский
Субтитры: Русские, украинские, английские
Видео: HEVC/H.265, 1920x800, ~9368 Kbps
Аудио 1: AC3, 6 ch, 640 Kbps - Русский (DUB, BD CEE)
Аудио 2: AC3, 6 ch, 640 Kbps - Русский (AVO, Ю. Сербин)
Аудио 3: AC3, 6 ch, 640 Kbps - Русский (AVO, А. Дасевич)
Аудио 4: AC3, 6 ch, 640 Kbps - Русский (AVO, В. Белов)
Аудио 5: AC3, 6 ch, 448 Kbps - Украинский (DUB, R5)
Аудио 6: AC3, 6 ch, 640 Kbps - Английский (Оригинал)General
Unique ID : 176172262670145738069251464476256502706 (0x84898B29AD480AE455D949E8A51A03B2)
Complete name : Супер 8 - Super 8 (2011) BDRip-HEVC 1080p - KORSAR.mkv
Format : Matroska
Format version : Version 4/Version 2
File size : 10.2 GiB
Duration : 1 h 51 min
Overall bit rate : 13.0 Mb/s
Movie name : Super 8 (2011)_rip_by_Cthulhu
Encoded date : UTC 2020-03-10 17: 18: 59
Writing application : mkvmerge v37.0.0 (\'Leave It\') 64-bit
Writing library : libebml v1.3.9 + libmatroska v1.5.2
Cover : Yes
Attachments : cover7.jpg
Video
ID : 1
Format : HEVC
Format/Info : High Efficiency Video Coding
Format profile : Main10@L4.1@High
Codec ID : V_MPEGH/ISO/HEVC
Duration : 1 h 51 min
Bit rate : 9 368 kb/s
Width : 1 920 pixels
Height : 800 pixels
Display aspect ratio : 2.40: 1
Frame rate mode : Constant
Frame rate : 23.976 (24000/1001) FPS
Color space : YUV
Chroma subsampling : 4: 2: 0
Bit depth : 10 bits
Bits/(Pixel*Frame) : 0.254
Stream size : 7.32 GiB (72%)
Writing library : x265 3.3+2-gbe2d82093: WindowsGCC 10.0.164 bit 10bit
Encoding settings : cpuid=1111039/frame-threads=4/numa-pools=16/wpp/no-pmode/no-pme/no-psnr/no-ssim/log-level=2/input-csp=1/input-res=1920x800/interlace=0/total-frames=160849/level-idc=41/high-tier=1/uhd-bd=0/ref=5/no-allow-non-conformance/no-repeat-t_heads/annexb/no-aud/no-hrd/info/hash=0/no-temporal-layers/open-gop/min-keyint=23/keyint=240/gop-lookahead=0/bframes=10/b-adapt=2/b-pyramid/bframe-bias=0/rc-lookahead=60/lookahead-slices=1/scenecut=40/hist-scenecut=0/radl=0/no-splice/no-intra-refresh/ctu=32/min-cu-size=8/rect/amp/max-tu-size=32/tu-inter-depth=4/tu-intra-depth=4/limit-tu=1/rdoq-level=2/dynamic-rd=0.00/no-ssim-rd/signhide/no-tskip/nr-intra=0/nr-inter=0/no-constrained-intra/no-strong-intra-smoothing/max-merge=5/limit-refs=3/limit-modes/me=3/subme=7/merange=57/temporal-mvp/no-frame-dup/hme/Level/merange/L0, L1, L2=16, 32, 57/weightp/weightb/no-analyze-src-pics/deblock=-3: -3/no-sao/no-sao-non-deblock/rd=6/selective-sao=0/no-early-skip/rskip/rskip-edge-threshold=0.050000/no-fast-intra/no-tskip-fast/no-cu-lossless/no-b-intra/no-splitrd-skip/rdpenalty=0/psy-rd=2.00/psy-rdoq=1.15/no-rd-refine/no-lossless/cbqpoffs=0/crqpoffs=0/rc=crf/crf=19.6/qcomp=0.68/qpstep=4/stats-write=0/stats-read=0/vbv-maxrate=50000/vbv-bufsize=50000/vbv-init=0.9/crf-max=0.0/crf-min=0.0/ipratio=1.40/pbratio=1.30/aq-mode=4/aq-strength=0.70/no-cutree/zone-count=0/no-strict-cbr/qg-size=32/no-rc-grain/qpmax=69/qpmin=0/no-const-vbv/sar=1/overscan=0/videoformat=5/range=0/colorprim=1/transfer=1/colormatrix=1/chromaloc=0/display-window=0/cll=0, 0/min-luma=0/max-luma=1023/log2-max-poc-lsb=8/vui-timing-info/vui-hrd-info/slices=1/no-opt-qp-pps/no-opt-ref-list-length-pps/no-multi-pass-opt-rps/scenecut-bias=0.05/hist-threshold=0.01/no-opt-cu-delta-qp/no-aq-motion/no-hdr10/no-hdr10-opt/no-dhdr10-opt/no-idr-recovery-sei/analysis-reuse-level=0/analysis-save-reuse-level=0/analysis-load-reuse-level=0/scale-factor=0/refine-intra=0/refine-inter=0/refine-mv=1/refine-ctu-distortion=0/no-limit-sao/ctu-info=0/no-lowpass-dct/refine-analysis-type=0/copy-pic=1/max-ausize-factor=1.0/no-dynamic-refine/no-single-sei/no-hevc-aq/no-svt/no-field/qp-adaptation-range=1.00/no-scenecut-aware-qpconformance-window-offsets/right=0/bottom=0
Language : English
Default : Yes
Forced : No
Color range : Limited
Color primaries : BT.709
Transfer characteristics : BT.709
Matrix coefficients : BT.709
Audio #1
ID : 2
Format : AC-3
Format/Info : Audio Coding 3
Commercial name : Dolby Digital
Codec ID : A_AC3
Duration : 1 h 51 min
Bit rate mode : Constant
Bit rate : 640 kb/s
Channel(s) : 6 channels
Channel layout : L R C LFE Ls Rs
Sampling rate : 48.0 kHz
Frame rate : 31.250 FPS (1536 SPF)
Bit depth : 16 bits
Compression mode : Lossy
Stream size : 512 MiB (5%)
Title : Дубляж (Blu-Ray CEE)
Language : Russian
Service kind : Complete Main
Default : Yes
Forced : No
Audio #2
ID : 3
Format : AC-3
Format/Info : Audio Coding 3
Commercial name : Dolby Digital
Codec ID : A_AC3
Duration : 1 h 51 min
Bit rate mode : Constant
Bit rate : 640 kb/s
Channel(s) : 6 channels
Channel layout : L R C LFE Ls Rs
Sampling rate : 48.0 kHz
Frame rate : 31.250 FPS (1536 SPF)
Bit depth : 16 bits
Compression mode : Lossy
Stream size : 512 MiB (5%)
Title : AVO (Сербин)
Language : Russian
Service kind : Complete Main
Default : No
Forced : No
Audio #3
ID : 4
Format : AC-3
Format/Info : Audio Coding 3
Commercial name : Dolby Digital
Codec ID : A_AC3
Duration : 1 h 51 min
Bit rate mode : Constant
Bit rate : 640 kb/s
Channel(s) : 6 channels
Channel layout : L R C LFE Ls Rs
Sampling rate : 48.0 kHz
Frame rate : 31.250 FPS (1536 SPF)
Bit depth : 16 bits
Compression mode : Lossy
Stream size : 512 MiB (5%)
Title : AVO (Дасевич)
Language : Russian
Service kind : Complete Main
Default : No
Forced : No
Audio #4
ID : 5
Format : AC-3
Format/Info : Audio Coding 3
Commercial name : Dolby Digital
Codec ID : A_AC3
Duration : 1 h 51 min
Bit rate mode : Constant
Bit rate : 640 kb/s
Channel(s) : 6 channels
Channel layout : L R C LFE Ls Rs
Sampling rate : 48.0 kHz
Frame rate : 31.250 FPS (1536 SPF)
Bit depth : 16 bits
Compression mode : Lossy
Stream size : 512 MiB (5%)
Title : AVO (Белов)
Language : Russian
Service kind : Complete Main
Default : No
Forced : No
Audio #5
ID : 6
Format : AC-3
Format/Info : Audio Coding 3
Commercial name : Dolby Digital
Codec ID : A_AC3
Duration : 1 h 51 min
Bit rate mode : Constant
Bit rate : 448 kb/s
Channel(s) : 6 channels
Channel layout : L R C LFE Ls Rs
Sampling rate : 48.0 kHz
Frame rate : 31.250 FPS (1536 SPF)
Bit depth : 16 bits
Compression mode : Lossy
Stream size : 358 MiB (3%)
Title : Дубляж
Language : Ukrainian
Service kind : Complete Main
Default : No
Forced : No
Audio #6
ID : 7
Format : AC-3
Format/Info : Audio Coding 3
Commercial name : Dolby Digital
Codec ID : A_AC3
Duration : 1 h 51 min
Bit rate mode : Constant
Bit rate : 640 kb/s
Channel(s) : 6 channels
Channel layout : L R C LFE Ls Rs
Sampling rate : 48.0 kHz
Frame rate : 31.250 FPS (1536 SPF)
Bit depth : 16 bits
Compression mode : Lossy
Stream size : 512 MiB (5%)
Language : English
Service kind : Complete Main
Default : No
Forced : No
Text #1
ID : 8
Format : UTF-8
Codec ID : S_TEXT/UTF8
Codec ID/Info : UTF-8 Plain Text
Duration : 1 h 40 min
Bit rate : 0 b/s
Count of elements : 4
Stream size : 217 Bytes (0%)
Title : forced
Language : Russian
Default : No
Forced : No
Text #2
ID : 9
Format : UTF-8
Codec ID : S_TEXT/UTF8
Codec ID/Info : UTF-8 Plain Text
Duration : 1 h 48 min
Bit rate : 104 b/s
Count of elements : 1432
Stream size : 83.4 KiB (0%)
Title : full
Language : Russian
Default : No
Forced : No
Text #3
ID : 10
Format : UTF-8
Codec ID : S_TEXT/UTF8
Codec ID/Info : UTF-8 Plain Text
Duration : 1 h 48 min
Bit rate : 104 b/s
Count of elements : 1432
Stream size : 83.4 KiB (0%)
Title : full voronin
Language : Russian
Default : No
Forced : No
Text #4
ID : 11
Format : UTF-8
Codec ID : S_TEXT/UTF8
Codec ID/Info : UTF-8 Plain Text
Duration : 1 h 40 min
Bit rate : 0 b/s
Count of elements : 4
Stream size : 210 Bytes (0%)
Title : forced
Language : Ukrainian
Default : No
Forced : No
Text #5
ID : 12
Format : UTF-8
Codec ID : S_TEXT/UTF8
Codec ID/Info : UTF-8 Plain Text
Duration : 1 h 50 min
Bit rate : 83 b/s
Count of elements : 1469
Stream size : 67.5 KiB (0%)
Title : full
Language : Ukrainian
Default : No
Forced : No
Text #6
ID : 13
Format : UTF-8
Codec ID : S_TEXT/UTF8
Codec ID/Info : UTF-8 Plain Text
Duration : 1 h 48 min
Bit rate : 65 b/s
Count of elements : 1461
Stream size : 51.8 KiB (0%)
Language : English
Default : No
Forced : No
Menu
00: 00: 00.000 : en: Chapter.01
00: 07: 01.504 : en: Chapter.02
00: 11: 33.275 : en: Chapter.03
00: 19: 25.164 : en: Chapter.04
00: 26: 43.518 : en: Chapter.05
00: 33: 36.514 : en: Chapter.06
00: 40: 30.511 : en: Chapter.07
00: 45: 42.156 : en: Chapter.08
00: 51: 57.114 : en: Chapter.09
00: 56: 59.958 : en: Chapter.10
01: 02: 24.365 : en: Chapter.11
01: 08: 12.505 : en: Chapter.12
01: 13: 30.906 : en: Chapter.13
01: 18: 33.875 : en: Chapter.14
01: 25: 31.334 : en: Chapter.15
01: 30: 25.378 : en: Chapter.16
01: 38: 20.352 : en: Chapter.17
01: 43: 37.836 : en: Chapter.18

Скриншоты для ознакомления



Все одноименные релизы в Клубе
Время раздачи: 24/7 (мультитрекерная раздача)
 
Уважаемый посетитель, Вы зашли на сайт как незарегистрированный пользователь. Мы рекомендуем Вам зарегистрироваться либо зайти на сайт под своим именем.

Другие новости по теме:

  • Super Robot Taisen OG: The Inspector | Super Robot Wars Original Generation: The Inspector | Войны супер-роботов: Инспектор [2010, TV, 26 эп.] BDRip 1080p Hi10P raw
  • Супер-пупер мультфильм от Джея и Молчаливого Боба / Jay and Silent Bobs Super Groovy Cartoon Movie (2013) WEB-DL [H.264 / 1080i-LQ] скачать через торрент бесплатно
  • Ranma 1 / 2 Super | Ranma Nibun no Ichi Super | Ранма 1 / 2: Супер [1995, OVA, 3 из 3] BDRip 1080p raw+rus+eng
  • Bishoujo Senshi Sailor Moon Super S: Sailor 9 Senshi Shuuketsu! Black Dream Hole no Kiseki | Pretty Soldier Sailor Moon Super S: Black Dream Hole | Красавица-воин Сейлор Мун Супер Эс: Чёрная дыра снов [1995, Movie] BDRip 1080p raw
  • Bishoujo Senshi Sailor Moon Super S Special | Pretty Soldier Sailor Moon Super S Special | Красавица-воин Сейлор Мун Супер Эс: Спецвыпуск [1995, Special, 1 из 1] BDRip 1080p raw
  • Bishoujo Senshi Sailor Moon Super S | Pretty Soldier Sailor Moon Super S | Красавица-воин Сейлор Мун Супер Эс [1995, TV, 39 из 39] BDRip 1080p raw
  • Реймонд Хеттинджер | Super — это супер! (2015) HDTV скачать через торрент бесплатно
  • Doragon Boru Supa / Dragon Boll Super / Драгонболл Супер [2015, TV, 0 из >100] HDTV 720p raw скачать через торрент бесплатно


  • Информация
    Посетители, находящиеся в группе Гости, не могут оставлять комментарии в данной новости.
    Главная страница | Регистрация | Добавить новость | Новое на сайте Copyright © 2019. bolt.mmix.club All Rights Reserved