Подписывайся на наш канал в Telegram https://t.me/torrentok и получи доступ к торрентам без ограничений!
. bolt.mmix.club
Авторские права
con...@...Показать
Вход на сайт
Логин:
Пароль:
 
Навигация по сайту
Популярные статьи

Торрент трекер | Скачать торрент | Скачать через Торрент | Скачать торрент бесплатно | Скачать торрент без регистрации Фильмы торрент скачать Бешеные псы / Reservoir Dogs (1992) BDRip [H.265 / 1080p] [10-bit] [JPN Transfer] торрент скачать бесплатно

Бешеные псы / Reservoir Dogs (1992) BDRip [H.265 / 1080p] [10-bit] [JPN Transfer] торрент скачать бесплатно

Фильмы торрент скачать
Бешеные псы / Reservoir Dogs (1992) BDRip [H.265 / 1080p] [10-bit] [JPN Transfer]Производство: США/Dog Eat Dog Productions Inc., Live Entertainment
Жанр: Триллер, криминал, драма
Режиссер: Квентин Тарантино

Актеры
Харви Кейтель, Тим Рот, Майкл Мэдсен, Крис Пенн, Стив Бушеми, Лоуренс Тирни, Рэнди Брукс, Кирк Балц, Эдвард Банкер, Квентин Тарантино

Описание

Это должно было стать идеальным преступлением. Задумав ограбить ювелирный магазин, криминальный босс Джо Кэбот собрал вместе шестерых опытных и совершенно незнакомых друг с другом преступников. Но с самого начала все пошло не так, и обычный грабеж превратился в кровавую бойню.


Возраст: 18+ (зрителям, достигшим 18 лет. запрещено для детей)
Рейтинг MPAA: R (лицам до 17 лет обязательно присутствие взрослого)
Релиз от: KORSAR
Продолжительность: 01: 39: 09
Качество видео: BDRip
Перевод: Профессиональный многоголосый, профессиональный двухголосый, авторский
Субтитры: Русские, английские
Видео: HEVC/H.265, 1916x820, ~6507 Kbps
Аудио 01: AC3, 6 ch, 640 Kbps - Русский (MVO, Twister)
Аудио 02: AC3, 2 ch, 192 Kbps - Русский (MVO, РТР)
Аудио 03: AC3, 2 ch, 192 Kbps - Русский (MVO, НТВ+)
Аудио 04: AC3, 2 ch, 192 Kbps - Русский (MVO, НТВ)
Аудио 05: AC3, 6 ch, 448 Kbps - Русский (DVO, Екатеринбург Арт)
Аудио 06: AC3, 2 ch, 192 Kbps - Русский (DVO, Премьер)
Аудио 07: AC3, 6 ch, 640 Kbps - Русский (AVO, Ю. Живов)
Аудио 08: AC3, 6 ch, 640 Kbps - Русский (AVO, Гоблин - поздний)
Аудио 09: AC3, 6 ch, 640 Kbps - Русский (AVO, М. Чадов)
Аудио 10: AC3, 6 ch, 640 Kbps - Русский (AVO, Р. Мухаметзянов )
Аудио 11: AC3, 6 ch, 448 Kbps - Русский (AVO, R5/CP Digital)
Аудио 12: AC3, 6 ch, 448 Kbps - Русский (AVO, Ю. Сербин)
Аудио 13: AC3, 6 ch, 448 Kbps - Русский (AVO, А. Гаврилов)
Аудио 14: AC3, 2 ch, 192 Kbps - Русский (AVO, В. Горчаков)
Аудио 15: AC3, 2 ch, 192 Kbps - Русский (AVO, Гоблин - ранний)
Аудио 16: AC3, 6 ch, 640 Kbps - Украинский (MVO, Цікава Ідея)
Аудио 17: AC3, 6 ch, 640 Kbps - Английский (Оригинал)x265 info: frame I: 894, Avg QP: 17.25 kb/s: 33180.68
x265 info: frame P: 26094, Avg QP: 18.48 kb/s: 18284.63
x265 info: frame B: 115669, Avg QP: 20.90 kb/s: 3643.55
==============================================================
General
Unique ID : 255678501904134306106383067684250537165 (0xC059E367528644A0C1328F3FAD574CCD)
Complete name : Бешеные псы - Reservoir Dogs. JPN (1992) BDRip-HEVC 1080p - KORSAR.mkv
Format : Matroska
Format version : Version 4/Version 2
File size : 9.65 GiB
Duration : 1 h 39 min
Overall bit rate : 13.9 Mb/s
Movie name : Reservoir Dogs (1992)_rip_by_Cthulhu
Encoded date : UTC 2020-07-30 17: 22: 52
Writing application : mkvmerge v46.0.0 (\'No Deeper Escape\') 64-bit
Writing library : libebml v1.3.10 + libmatroska v1.5.2
Cover : Yes
Attachments : cover6.jpg
Video
ID : 1
Format : HEVC
Format/Info : High Efficiency Video Coding
Format profile : Main10@L4.1@High
Codec ID : V_MPEGH/ISO/HEVC
Duration : 1 h 39 min
Bit rate : 6 507 kb/s
Width : 1 916 pixels
Height : 820 pixels
Display aspect ratio : 2.35: 1
Frame rate mode : Constant
Frame rate : 23.976 (24000/1001) FPS
Color space : YUV
Chroma subsampling : 4: 2: 0
Bit depth : 10 bits
Bits/(Pixel*Frame) : 0.173
Stream size : 4.51 GiB (47%)
Writing library : x265 3.3+2-gbe2d82093: WindowsGCC 10.0.164 bit 10bit
Encoding settings : cpuid=1111039/frame-threads=4/numa-pools=16/wpp/no-pmode/no-pme/no-psnr/no-ssim/log-level=2/input-csp=1/input-res=1916x820/interlace=0/total-frames=142657/level-idc=41/high-tier=1/uhd-bd=0/ref=5/no-allow-non-conformance/no-repeat-t_heads/annexb/no-aud/no-hrd/info/hash=0/no-temporal-layers/open-gop/min-keyint=23/keyint=240/gop-lookahead=0/bframes=11/b-adapt=2/b-pyramid/bframe-bias=0/rc-lookahead=60/lookahead-slices=1/scenecut=40/hist-scenecut=0/radl=0/no-splice/no-intra-refresh/ctu=32/min-cu-size=8/rect/amp/max-tu-size=32/tu-inter-depth=4/tu-intra-depth=4/limit-tu=1/rdoq-level=2/dynamic-rd=0.00/no-ssim-rd/signhide/no-tskip/nr-intra=0/nr-inter=0/no-constrained-intra/no-strong-intra-smoothing/max-merge=5/limit-refs=3/limit-modes/me=3/subme=7/merange=57/temporal-mvp/no-frame-dup/hme/Level/merange/L0, L1, L2=16, 32, 57/weightp/weightb/no-analyze-src-pics/deblock=-3: -3/no-sao/no-sao-non-deblock/rd=6/selective-sao=0/no-early-skip/rskip/rskip-edge-threshold=0.050000/no-fast-intra/no-tskip-fast/no-cu-lossless/b-intra/no-splitrd-skip/rdpenalty=0/psy-rd=1.60/psy-rdoq=0.50/no-rd-refine/no-lossless/cbqpoffs=0/crqpoffs=0/rc=crf/crf=20.0/qcomp=0.70/qpstep=4/stats-write=0/stats-read=0/vbv-maxrate=50000/vbv-bufsize=50000/vbv-init=0.9/crf-max=0.0/crf-min=0.0/ipratio=1.40/pbratio=1.30/aq-mode=1/aq-strength=1.00/no-cutree/zone-count=0/no-strict-cbr/qg-size=32/no-rc-grain/qpmax=69/qpmin=0/no-const-vbv/sar=1/overscan=0/videoformat=5/range=0/colorprim=1/transfer=1/colormatrix=1/chromaloc=0/display-window=0/cll=0, 0/min-luma=0/max-luma=1023/log2-max-poc-lsb=8/vui-timing-info/vui-hrd-info/slices=1/no-opt-qp-pps/no-opt-ref-list-length-pps/no-multi-pass-opt-rps/scenecut-bias=0.05/hist-threshold=0.01/no-opt-cu-delta-qp/no-aq-motion/no-hdr10/no-hdr10-opt/no-dhdr10-opt/no-idr-recovery-sei/analysis-reuse-level=0/analysis-save-reuse-level=0/analysis-load-reuse-level=0/scale-factor=0/refine-intra=0/refine-inter=0/refine-mv=1/refine-ctu-distortion=0/no-limit-sao/ctu-info=0/no-lowpass-dct/refine-analysis-type=0/copy-pic=1/max-ausize-factor=1.0/no-dynamic-refine/no-single-sei/no-hevc-aq/no-svt/no-field/qp-adaptation-range=1.00/no-scenecut-aware-qpconformance-window-offsets/right=0/bottom=0
Language : English
Default : Yes
Forced : No
Color range : Limited
Color primaries : BT.709
Transfer characteristics : BT.709
Matrix coefficients : BT.709
Audio #1
ID : 2
Format : AC-3
Format/Info : Audio Coding 3
Commercial name : Dolby Digital
Codec ID : A_AC3
Duration : 1 h 39 min
Bit rate mode : Constant
Bit rate : 640 kb/s
Channel(s) : 6 channels
Channel layout : L R C LFE Ls Rs
Sampling rate : 48.0 kHz
Frame rate : 31.250 FPS (1536 SPF)
Bit depth : 16 bits
Compression mode : Lossy
Stream size : 454 MiB (5%)
Title : MVO Twister
Language : Russian
Service kind : Complete Main
Default : Yes
Forced : No
Audio #2
ID : 3
Format : AC-3
Format/Info : Audio Coding 3
Commercial name : Dolby Digital
Codec ID : A_AC3
Duration : 1 h 39 min
Bit rate mode : Constant
Bit rate : 192 kb/s
Channel(s) : 2 channels
Channel layout : L R
Sampling rate : 48.0 kHz
Frame rate : 31.250 FPS (1536 SPF)
Bit depth : 16 bits
Compression mode : Lossy
Stream size : 136 MiB (1%)
Title : MVO РТР
Language : Russian
Service kind : Complete Main
Default : No
Forced : No
Audio #3
ID : 4
Format : AC-3
Format/Info : Audio Coding 3
Commercial name : Dolby Digital
Codec ID : A_AC3
Duration : 1 h 39 min
Bit rate mode : Constant
Bit rate : 192 kb/s
Channel(s) : 2 channels
Channel layout : L R
Sampling rate : 48.0 kHz
Frame rate : 31.250 FPS (1536 SPF)
Bit depth : 16 bits
Compression mode : Lossy
Stream size : 136 MiB (1%)
Title : MVO НТВ+
Language : Russian
Service kind : Complete Main
Default : No
Forced : No
Audio #4
ID : 5
Format : AC-3
Format/Info : Audio Coding 3
Commercial name : Dolby Digital
Codec ID : A_AC3
Duration : 1 h 39 min
Bit rate mode : Constant
Bit rate : 192 kb/s
Channel(s) : 2 channels
Channel layout : L R
Sampling rate : 48.0 kHz
Frame rate : 31.250 FPS (1536 SPF)
Bit depth : 16 bits
Compression mode : Lossy
Stream size : 136 MiB (1%)
Title : MVO НТВ
Language : Russian
Service kind : Complete Main
Default : No
Forced : No
Audio #5
ID : 6
Format : AC-3
Format/Info : Audio Coding 3
Commercial name : Dolby Digital
Codec ID : A_AC3
Duration : 1 h 39 min
Bit rate mode : Constant
Bit rate : 448 kb/s
Channel(s) : 6 channels
Channel layout : L R C LFE Ls Rs
Sampling rate : 48.0 kHz
Frame rate : 31.250 FPS (1536 SPF)
Bit depth : 16 bits
Compression mode : Lossy
Stream size : 318 MiB (3%)
Title : DVO Екатеринбург Арт
Language : Russian
Service kind : Complete Main
Default : No
Forced : No
Audio #6
ID : 7
Format : AC-3
Format/Info : Audio Coding 3
Commercial name : Dolby Digital
Codec ID : A_AC3
Duration : 1 h 39 min
Bit rate mode : Constant
Bit rate : 192 kb/s
Channel(s) : 2 channels
Channel layout : L R
Sampling rate : 48.0 kHz
Frame rate : 31.250 FPS (1536 SPF)
Bit depth : 16 bits
Compression mode : Lossy
Stream size : 136 MiB (1%)
Title : DVO Премьер
Language : Russian
Service kind : Complete Main
Default : No
Forced : No
Audio #7
ID : 8
Format : AC-3
Format/Info : Audio Coding 3
Commercial name : Dolby Digital
Codec ID : A_AC3
Duration : 1 h 39 min
Bit rate mode : Constant
Bit rate : 640 kb/s
Channel(s) : 6 channels
Channel layout : L R C LFE Ls Rs
Sampling rate : 48.0 kHz
Frame rate : 31.250 FPS (1536 SPF)
Bit depth : 16 bits
Compression mode : Lossy
Stream size : 454 MiB (5%)
Title : AVO Живов
Language : Russian
Service kind : Complete Main
Default : No
Forced : No
Audio #8
ID : 9
Format : AC-3
Format/Info : Audio Coding 3
Commercial name : Dolby Digital
Codec ID : A_AC3
Duration : 1 h 39 min
Bit rate mode : Constant
Bit rate : 640 kb/s
Channel(s) : 6 channels
Channel layout : L R C LFE Ls Rs
Sampling rate : 48.0 kHz
Frame rate : 31.250 FPS (1536 SPF)
Bit depth : 16 bits
Compression mode : Lossy
Stream size : 454 MiB (5%)
Title : AVO Гоблин (поздний)
Language : Russian
Service kind : Complete Main
Default : No
Forced : No
Audio #9
ID : 10
Format : AC-3
Format/Info : Audio Coding 3
Commercial name : Dolby Digital
Codec ID : A_AC3
Duration : 1 h 39 min
Bit rate mode : Constant
Bit rate : 640 kb/s
Channel(s) : 6 channels
Channel layout : L R C LFE Ls Rs
Sampling rate : 48.0 kHz
Frame rate : 31.250 FPS (1536 SPF)
Bit depth : 16 bits
Compression mode : Lossy
Stream size : 454 MiB (5%)
Title : AVO Чадов
Language : Russian
Service kind : Complete Main
Default : No
Forced : No
Audio #10
ID : 11
Format : AC-3
Format/Info : Audio Coding 3
Commercial name : Dolby Digital
Codec ID : A_AC3
Duration : 1 h 39 min
Bit rate mode : Constant
Bit rate : 640 kb/s
Channel(s) : 6 channels
Channel layout : L R C LFE Ls Rs
Sampling rate : 48.0 kHz
Frame rate : 31.250 FPS (1536 SPF)
Bit depth : 16 bits
Compression mode : Lossy
Stream size : 454 MiB (5%)
Title : AVO Мухаметзянов
Language : Russian
Service kind : Complete Main
Default : No
Forced : No
Audio #11
ID : 12
Format : AC-3
Format/Info : Audio Coding 3
Commercial name : Dolby Digital
Codec ID : A_AC3
Duration : 1 h 39 min
Bit rate mode : Constant
Bit rate : 448 kb/s
Channel(s) : 6 channels
Channel layout : L R C LFE Ls Rs
Sampling rate : 48.0 kHz
Frame rate : 31.250 FPS (1536 SPF)
Bit depth : 16 bits
Compression mode : Lossy
Stream size : 318 MiB (3%)
Title : AVO R5/CP Digital
Language : Russian
Service kind : Complete Main
Default : No
Forced : No
Audio #12
ID : 13
Format : AC-3
Format/Info : Audio Coding 3
Commercial name : Dolby Digital
Codec ID : A_AC3
Duration : 1 h 39 min
Bit rate mode : Constant
Bit rate : 448 kb/s
Channel(s) : 6 channels
Channel layout : L R C LFE Ls Rs
Sampling rate : 48.0 kHz
Frame rate : 31.250 FPS (1536 SPF)
Bit depth : 16 bits
Compression mode : Lossy
Stream size : 318 MiB (3%)
Title : AVO Сербин
Language : Russian
Service kind : Complete Main
Default : No
Forced : No
Audio #13
ID : 14
Format : AC-3
Format/Info : Audio Coding 3
Commercial name : Dolby Digital
Codec ID : A_AC3
Duration : 1 h 39 min
Bit rate mode : Constant
Bit rate : 448 kb/s
Channel(s) : 6 channels
Channel layout : L R C LFE Ls Rs
Sampling rate : 48.0 kHz
Frame rate : 31.250 FPS (1536 SPF)
Bit depth : 16 bits
Compression mode : Lossy
Stream size : 318 MiB (3%)
Title : AVO Гаврилов
Language : Russian
Service kind : Complete Main
Default : No
Forced : No
Audio #14
ID : 15
Format : AC-3
Format/Info : Audio Coding 3
Commercial name : Dolby Digital
Codec ID : A_AC3
Duration : 1 h 39 min
Bit rate mode : Constant
Bit rate : 192 kb/s
Channel(s) : 1 channel
Channel layout : C
Sampling rate : 48.0 kHz
Frame rate : 31.250 FPS (1536 SPF)
Bit depth : 16 bits
Compression mode : Lossy
Stream size : 136 MiB (1%)
Title : AVO Горчаков
Language : Russian
Service kind : Complete Main
Default : No
Forced : No
Audio #15
ID : 16
Format : AC-3
Format/Info : Audio Coding 3
Commercial name : Dolby Digital
Codec ID : A_AC3
Duration : 1 h 39 min
Bit rate mode : Constant
Bit rate : 192 kb/s
Channel(s) : 2 channels
Channel layout : L R
Sampling rate : 48.0 kHz
Frame rate : 31.250 FPS (1536 SPF)
Bit depth : 16 bits
Compression mode : Lossy
Stream size : 136 MiB (1%)
Title : AVO Гоблин ранний
Language : Russian
Service kind : Complete Main
Default : No
Forced : No
Audio #16
ID : 17
Format : AC-3
Format/Info : Audio Coding 3
Commercial name : Dolby Digital
Codec ID : A_AC3
Duration : 1 h 39 min
Bit rate mode : Constant
Bit rate : 640 kb/s
Channel(s) : 6 channels
Channel layout : L R C LFE Ls Rs
Sampling rate : 48.0 kHz
Frame rate : 31.250 FPS (1536 SPF)
Bit depth : 16 bits
Compression mode : Lossy
Stream size : 454 MiB (5%)
Title : MVO Цікава Ідея
Language : Ukrainian
Service kind : Complete Main
Default : No
Forced : No
Audio #17
ID : 18
Format : AC-3
Format/Info : Audio Coding 3
Commercial name : Dolby Digital
Codec ID : A_AC3
Duration : 1 h 39 min
Bit rate mode : Constant
Bit rate : 640 kb/s
Channel(s) : 6 channels
Channel layout : L R C LFE Ls Rs
Sampling rate : 48.0 kHz
Frame rate : 31.250 FPS (1536 SPF)
Bit depth : 16 bits
Compression mode : Lossy
Stream size : 454 MiB (5%)
Language : English
Service kind : Complete Main
Default : No
Forced : No
Text #1
ID : 19
Format : UTF-8
Codec ID : S_TEXT/UTF8
Codec ID/Info : UTF-8 Plain Text
Duration : 1 h 35 min
Bit rate : 112 b/s
Count of elements : 1147
Stream size : 78.5 KiB (0%)
Title : Twisrter
Language : Russian
Default : No
Forced : No
Text #2
ID : 20
Format : UTF-8
Codec ID : S_TEXT/UTF8
Codec ID/Info : UTF-8 Plain Text
Duration : 1 h 35 min
Bit rate : 119 b/s
Count of elements : 1148
Stream size : 83.4 KiB (0%)
Title : Гоблин
Language : Russian
Default : No
Forced : No
Text #3
ID : 21
Format : UTF-8
Codec ID : S_TEXT/UTF8
Codec ID/Info : UTF-8 Plain Text
Duration : 1 h 35 min
Bit rate : 102 b/s
Count of elements : 1415
Stream size : 71.3 KiB (0%)
Language : English
Default : No
Forced : No
Menu
00: 00: 00.000 : : Like a Virgin
00: 07: 28.448 : : Tips
00: 09: 39.495 : : Reservoir Dogs
00: 11: 09.794 : : Scared
00: 15: 10.451 : : Setup
00: 18: 55.843 : : Pursuit
00: 21: 32.040 : : Just Cops
00: 26: 28.128 : : Mr. White
00: 28: 13.650 : : Bark or Bite?
00: 32: 58.685 : : Cargo
00: 37: 44.261 : : Job-Type Job
00: 45: 30.728 : : I Gotcha
00: 52: 33.483 : : Blame Game
01: 00: 16.070 : : Bam Bam Bam Bam
01: 03: 47.073 : : Alone at Last
01: 06: 32.279 : : You Hear That?
01: 14: 21.957 : : I\'m a Cop
01: 19: 43.445 : : Mr. Orange
01: 22: 52.092 : : In Character
01: 24: 37.864 : : Rehearsal
01: 27: 01.549 : : The Boys\' Room
01: 35: 16.710 : : The Thing
01: 39: 07.941 : : Showtime

Скриншоты для ознакомления



Все одноименные релизы в Клубе
Время раздачи: 24/7 (мультитрекерная раздача)
 
Уважаемый посетитель, Вы зашли на сайт как незарегистрированный пользователь. Мы рекомендуем Вам зарегистрироваться либо зайти на сайт под своим именем.

Другие новости по теме:

  • Бешеные псы (Reservoir Dogs) (1992) [MP4 | 1024x438] <BDRip H.264>
  • Бешеные псы / Reservoir Dogs (1992) DVD9
  • Бешеные кошки / Reservoir Cats (2011) WEB-DLRip скачать через торрент бесплатно
  • Бешеные псы / Reservoir Dogs (1992) BDRip [H.264 / 1080p]
  • Бешеные Псы / Reservoir Dogs (1991) BDRip [H.265 / 1080p-LQ] [MVO]
  • Бешеные псы / Reservoir Dogs (1992) HDRip [H.264] [MP4|1920x816]
  • Бешеные псы / Reservoir Dogs (1992) HDRip [H.264] [MP4|1280x544]
  • Бешеные псы / Reservoir Dogs (1992) WEB-DLRip [H.264] [Open Matte]


  • Информация
    Посетители, находящиеся в группе Гости, не могут оставлять комментарии в данной новости.
    Главная страница | Регистрация | Добавить новость | Новое на сайте Copyright © 2019. bolt.mmix.club All Rights Reserved