Подписывайся на наш канал в Telegram https://t.me/torrentok и получи доступ к торрентам без ограничений!
. bolt.mmix.club
Авторские права
con...@...Показать
Вход на сайт
Логин:
Пароль:
 
Навигация по сайту
Популярные статьи

Торрент трекер | Скачать торрент | Скачать через Торрент | Скачать торрент бесплатно | Скачать торрент без регистрации Фильмы торрент скачать Аватар / Avatar (2009) BDRip [H.264 / 720p] [Extended Collectors Edition] торрент скачать бесплатно

Аватар / Avatar (2009) BDRip [H.264 / 720p] [Extended Collectors Edition] торрент скачать бесплатно

Фильмы торрент скачать
Аватар / Avatar (2009) BDRip [H.264 / 720p] [Extended Collectors Edition]Производство: США/Twentieth Century Fox, Dune Entertainment, Lightstorm Entertainment
Жанр: фантастика, боевик, драма, приключения
Режиссер: Джеймс Кэмерон

Актеры
Сэм Уортингтон, Зои Салдана, Сигурни Уивер, Стивен Лэнг, Мишель Родригес, Джованни Рибизи, Джоэл Мур, Си Си Эйч Паундер, Уэс Стьюди, Лаз Алонсо

Описание

Джейк Салли - бывший морской пехотинец, прикованный к инвалидному креслу. Несмотря на немощное тело, Джейк в душе по-прежнему остается воином. Он получает задание совершить путешествие в несколько световых лет к базе землян на планете Пандора, где корпорации добывают редкий минерал, имеющий огромное значение для выхода Земли из энергетического кризиса.


Возраст: 12+ (зрителям, достигшим 12 лет)
Рейтинг MPAA: PG-13 (детям до 13 лет просмотр нежелателен)
Релиз от: potroks
Продолжительность: 02: 58: 09
Качество видео: BDRip
Перевод: Дублированный, двухголосый профессиональный, авторский, любительский одноголосый
Субтитры: русские (Forced стилизованные (хардсаб) forced, full) английские (Full, SDH)
Видео: AVC/H.264, 1280x720, ~8595 kbps
Аудио 1: AC3, 6 ch, 448 kbps, Русский (DUB Blu-ray EUR)
Аудио 2: AC3, 6 ch, 448 kbps, Русский (DVO Кубик в кубе)
Аудио 3: AC3, 6 ch, 448 kbps, Русский (АVO Ю.Сербин)
Аудио 4: AC3, 6 ch, 448 kbps, Русский (VO Е.Солодухин)
Аудио 5: AC3, 6 ch, 448 kbps, Английский
Общее
Уникальный идентификатор : 209851737015720270157521396280102695196 (0x9DDFF973973C5D68B9B8FF9C9BCF311C)
Полное имя : F: CINEMAAvatar.2009.EC.BDRip.720p.mkv
Формат : Matroska
Версия формата : Version 4
Размер файла : 13, 5 Гбайт
Продолжительность : 2 ч. 58 м.
Общий поток : 10, 8 Мбит/сек
Название фильма : Avatar (2009)
Дата кодирования : UTC 2018-04-21 10: 57: 56
Программа кодирования : mkvmerge v5.9.0 (\'On The Loose\') built on Dec 15 2012 16: 39: 58
Библиотека кодирования : libebml v1.3.0 + libmatroska v1.4.0
Видео
Идентификатор : 1
Формат : AVC
Формат/Информация : Advanced Video Codec
Профиль формата : High@L4.1
Настройки формата : CABAC/9 Ref Frames
Параметр CABAC формата : Да
Параметр RefFrames формата : 9 кадров
Идентификатор кодека : V_MPEG4/ISO/AVC
Продолжительность : 2 ч. 58 м.
Битрейт : 8 595 Кбит/сек
Ширина : 1 280 пикселей
Высота : 720 пикселей
Соотношение сторон : 16: 9
Режим частоты кадров : Постоянный
Частота кадров : 23, 976 (24000/1001) кадра/сек
Цветовое пространство : YUV
Субдискретизация насыщенности : 4: 2: 0
Битовая глубина : 8 бит
Тип развёртки : Прогрессивная
Бит/(Пиксели*Кадры) : 0.389
Размер потока : 10, 4 Гбайт (77%)
Заголовок : potroks
Библиотека кодирования : x264 core 146 r2538 121396c
Настройки программы : cabac=1/ref=9/deblock=1: -3: -3/analyse=0x3: 0x113/me=umh/subme=11/psy=1/psy_rd=1.00: 0.05/mixed_ref=1/me_range=48/chroma_me=1/trellis=2/8x8dct=1/cqm=0/deadzone=21, 11/fast_pskip=0/chroma_qp_offset=-3/threads=12/lookahead_threads=3/sliced_threads=0/nr=0/decimate=0/interlaced=0/bluray_compat=0/constrained_intra=0/bframes=12/b_pyramid=2/b_adapt=2/b_bias=0/direct=3/weightb=1/open_gop=0/weightp=2/keyint=250/keyint_min=23/scenecut=40/intra_refresh=0/rc_lookahead=60/rc=2pass/mbtree=1/bitrate=8595/ratetol=1.0/qcomp=0.70/qpmin=0/qpmax=69/qpstep=4/cplxblur=20.0/qblur=0.5/vbv_maxrate=14000/vbv_bufsize=14000/nal_hrd=none/filler=0/ip_ratio=1.40/aq=2: 0.70
Язык : English
Default : Да
Forced : Нет
Duration_Source : General_Duration
Аудио #1
Идентификатор : 2
Формат : AC-3
Формат/Информация : Audio Coding 3
Коммерческое название : Dolby Digital
Идентификатор кодека : A_AC3
Продолжительность : 2 ч. 58 м.
Вид битрейта : Постоянный
Битрейт : 448 Кбит/сек
Каналы : 6 каналов
Channel layout : L R C LFE Ls Rs
Частота : 48, 0 КГц
Частота кадров : 31, 250 кадров/сек (1536 SPF)
Метод сжатия : С потерями
Размер потока : 571 Мбайт (4%)
Язык : Russian
Service kind : Complete Main
Default : Да
Forced : Нет
Duration_Source : General_Duration
Аудио #2
Идентификатор : 3
Формат : AC-3
Формат/Информация : Audio Coding 3
Коммерческое название : Dolby Digital
Идентификатор кодека : A_AC3
Продолжительность : 2 ч. 58 м.
Вид битрейта : Постоянный
Битрейт : 448 Кбит/сек
Каналы : 6 каналов
Channel layout : L R C LFE Ls Rs
Частота : 48, 0 КГц
Частота кадров : 31, 250 кадров/сек (1536 SPF)
Метод сжатия : С потерями
Размер потока : 571 Мбайт (4%)
Заголовок : DVO | DD 5.1 @ 448 kbps - Kubik v kube
Язык : Russian
Service kind : Complete Main
Default : Нет
Forced : Нет
Duration_Source : General_Duration
Аудио #3
Идентификатор : 4
Формат : AC-3
Формат/Информация : Audio Coding 3
Коммерческое название : Dolby Digital
Идентификатор кодека : A_AC3
Продолжительность : 2 ч. 58 м.
Вид битрейта : Постоянный
Битрейт : 448 Кбит/сек
Каналы : 6 каналов
Channel layout : L R C LFE Ls Rs
Частота : 48, 0 КГц
Частота кадров : 31, 250 кадров/сек (1536 SPF)
Метод сжатия : С потерями
Размер потока : 571 Мбайт (4%)
Заголовок : AVO | DD 5.1 @ 448 kbps - Yu.Serbin
Язык : Russian
Service kind : Complete Main
Default : Нет
Forced : Нет
Duration_Source : General_Duration
Аудио #4
Идентификатор : 5
Формат : AC-3
Формат/Информация : Audio Coding 3
Коммерческое название : Dolby Digital
Идентификатор кодека : A_AC3
Продолжительность : 2 ч. 58 м.
Вид битрейта : Постоянный
Битрейт : 448 Кбит/сек
Каналы : 6 каналов
Channel layout : L R C LFE Ls Rs
Частота : 48, 0 КГц
Частота кадров : 31, 250 кадров/сек (1536 SPF)
Метод сжатия : С потерями
Размер потока : 571 Мбайт (4%)
Заголовок : VO | DD 5.1 @ 448 kbps - Solod
Язык : Russian
Service kind : Complete Main
Default : Нет
Forced : Нет
Duration_Source : General_Duration
Аудио #5
Идентификатор : 6
Формат : AC-3
Формат/Информация : Audio Coding 3
Коммерческое название : Dolby Digital
Идентификатор кодека : A_AC3
Продолжительность : 2 ч. 58 м.
Вид битрейта : Постоянный
Битрейт : 448 Кбит/сек
Каналы : 6 каналов
Channel layout : L R C LFE Ls Rs
Частота : 48, 0 КГц
Частота кадров : 31, 250 кадров/сек (1536 SPF)
Метод сжатия : С потерями
Размер потока : 571 Мбайт (4%)
Заголовок : Original | DD 5.1 @ 448 kbps
Язык : English
Service kind : Complete Main
Default : Нет
Forced : Нет
Duration_Source : General_Duration
Текст #1
Идентификатор : 7
Формат : UTF-8
Идентификатор кодека : S_TEXT/UTF8
Идентификатор кодека/Информация : UTF-8 Plain Text
Заголовок : v1
Язык : Russian
Default : Нет
Forced : Нет
Текст #2
Идентификатор : 8
Формат : UTF-8
Идентификатор кодека : S_TEXT/UTF8
Идентификатор кодека/Информация : UTF-8 Plain Text
Заголовок : v2
Язык : Russian
Default : Нет
Forced : Нет
Текст #3
Идентификатор : 9
Формат : UTF-8
Идентификатор кодека : S_TEXT/UTF8
Идентификатор кодека/Информация : UTF-8 Plain Text
Заголовок : Forced
Язык : English
Default : Нет
Forced : Нет
Текст #4
Идентификатор : 10
Формат : UTF-8
Идентификатор кодека : S_TEXT/UTF8
Идентификатор кодека/Информация : UTF-8 Plain Text
Заголовок : Full
Язык : English
Default : Нет
Forced : Нет
Текст #5
Идентификатор : 11
Формат : UTF-8
Идентификатор кодека : S_TEXT/UTF8
Идентификатор кодека/Информация : UTF-8 Plain Text
Заголовок : SDH
Язык : English
Default : Нет
Forced : Нет
Меню
00: 00: 00.000 : en: Lost Soul
00: 05: 25.575 : en: A New World
00: 10: 12.278 : en: You Are Not In Kansas Anymore
00: 11: 47.915 : en: This Is Your Avatar Now, Jake .
00: 15: 59.208 : en: This Is Why We\'re Here...
00: 17: 54.782 : en: First Awakening
00: 23: 54.891 : en: Colonel Quaritch
00: 27: 54.547 : en: First Sortie
00: 30: 27.617 : en: Abandoned Schoolhouse
00: 32: 27.904 : en: Thanator Chase
00: 37: 16.525 : en: A Sign
00: 39: 08.053 : en: Viperwolves
00: 41: 18.475 : en: Neytiri
00: 49: 16.912 : en: The Omaticaya Clan
00: 55: 42.213 : en: Cover Report
01: 01: 09.415 : en: The Hallelujah Mountains
01: 07: 03.227 : en: Learn Fast Or Die
01: 11: 50.222 : en: A Mother\'s Pain
01: 15: 53.799 : en: Banshee Rookery
01: 22: 38.119 : en: First Flight
01: 26: 12.709 : en: Clan Hunt
01: 27: 42.298 : en: Last Shadow
01: 33: 00.407 : en: A Son Of the Omaticaya
01: 37: 36.892 : en: Willow Glade Destruction
01: 44: 15.290 : en: Conflict Escalation
01: 50: 02.595 : en: You Will Never Be One Of The People!
01: 51: 53.581 : en: Assault On Hometree
01: 58: 30.895 : en: Aftermath
02: 02: 13.284 : en: Escape From Hell\'s Gate
02: 07: 51.663 : en: There\'s Something We Gotta Do...
02: 09: 30.554 : en: Toruk Macto
02: 12: 36.615 : en: She\'s Real
02: 16: 03.363 : en: Recruiting The Clans
02: 19: 31.654 : en: Preamble To Battle
02: 23: 59.630 : en: Battle For Pandora
02: 30: 05.079 : en: Fall Of The Heroes
02: 33: 56.852 : en: Eywa
02: 40: 02.259 : en: Quartich Fight
02: 45: 33.214 : en: I See You
02: 46: 48.498 : en: My Brother
02: 48: 56.793 : en: Transformation
02: 51: 32.073 : en: End Credits

Скриншоты для ознакомления




Все одноименные релизы в Клубе
Время раздачи: c 5 до 19 мск (до появления первых 3-5 скачавших)
 
Уважаемый посетитель, Вы зашли на сайт как незарегистрированный пользователь. Мы рекомендуем Вам зарегистрироваться либо зайти на сайт под своим именем.

Другие новости по теме:

  • Аватар / Avatar (2009) BDRip [1080p] 3D [Вертикальная анаморфная стереопара] [hand made 60 fps]
  • Аватар / Avatar (2009) BDRip [720p] [Extended Cut]
  • Аватар / Avatar (2009) BDRip [1080p] [Extended Cut]
  • Аватар / Avatar (2009) BDRip [H.264] [Extended Cut] скачать через торрент бесплатно
  • Аватар / Avatar (2009) BDRip 3D [H.264 / 1080p] [Вертикальная анаморфная стереопара] [Extended Cut] скачать через торрент бесплатно
  • Аватар / Avatar (2009) HDRip (H.264 / 1080p-LQ) [Extended Cut] скачать через торрент бесплатно
  • Аватар / Avatar (2009) HDRip [H.264] [MP4|960х544] скачать через торрент бесплатно
  • Ак Батыр (Аватар) / Avatar (2014) BDRip


  • Информация
    Посетители, находящиеся в группе Гости, не могут оставлять комментарии в данной новости.
    Главная страница | Регистрация | Добавить новость | Новое на сайте Copyright © 2019. bolt.mmix.club All Rights Reserved