Подписывайся на наш канал в Telegram https://t.me/torrentok и получи доступ к торрентам без ограничений!
. bolt.mmix.club
Авторские права
con...@...Показать
Вход на сайт
Логин:
Пароль:
 
Навигация по сайту
Популярные статьи

Торрент трекер | Скачать торрент | Скачать через Торрент | Скачать торрент бесплатно | Скачать торрент без регистрации Фильмы торрент скачать Калейдоскоп ужасов / Creepshow (1982) BDRip [H.265 / 1080p] [10-bit] торрент скачать бесплатно

Калейдоскоп ужасов / Creepshow (1982) BDRip [H.265 / 1080p] [10-bit] торрент скачать бесплатно

Фильмы торрент скачать
Калейдоскоп ужасов / Creepshow (1982) BDRip [H.265 / 1080p] [10-bit]Производство: США/Creepshow Films Inc., Laurel Entertainment Inc., Laurel-Show Inc.
Жанр: ужасы, фэнтези, комедия
Режиссер: Джордж А. Ромеро

Актеры
Хэл Холбрук, Эдриенн Барбо, Фриц Уивер, Лесли Нильсен, Кэрри Най, Э. Г. Маршалл, Вивека Линдфорс, Эд Харрис, Тед Дэнсон, Стивен Кинг

Описание
Антология, состоящая из пяти рассказов. Отец видит сына, рассматривающего журнал с комиксами ужасов. Он отнимает у него вредный журнал, выбрасывает его в мусорный ящик, а мальчугана отправляет спать. Неожиданно в окне мальчик видит добродушное лицо призрака, который зовет его с собой. Он ведет его по улице прямо к мусорке, где лежит журнал…


Возраст: 18+ (зрителям, достигшим 18 лет. запрещено для детей)
Рейтинг MPAA: R (лицам до 17 лет обязательно присутствие взрослого)
Релиз от: Мичман (HEVC-CLUB)
Продолжительность: 02: 00: 28
Качество видео: BDRip
Перевод: Многоголосый профессиональный, авторский
Субтитры: Русские, английские
Видео: HEVC/H.265, 1920x1040, ~14, 7 Мbps
Аудио 1: AC3, 2 ch, 192 Kbps - Русский, MVO (HTB)
Аудио 2: AC3, 2 ch, 192 Kbps - Русский, MVO (Paramount Channel)
Аудио 3: AC3, 6 ch, 448 Kbps - Русский, AVO (Визгунов)
Аудио 4: AC3, 2 ch, 224 Kbps - Английский
==============================
x265 info: frame I: Avg QP: 18.88 kb/s
x265 info: frame P: Avg QP: 20.18 kb/s
x265 info: frame B: Avg QP: 22.14 kb/s
==============================
Общее
Уникальный идентификатор : 234085811383295519373144403627437883794 (0xB01B49911356E2E35A48DB3D1FCA8192)
Полное имя : R: Creepshow (1982) BDRip-HEVC 1080p.mkv
Формат : Matroska
Версия формата : Version 4/Version 2
Размер файла : 13, 3 Гбайт
Продолжительность : 2 ч. 0 м.
Общий поток : 15, 8 Мбит/сек
Название фильма : Creepshow (1982)
Дата кодирования : UTC 2020-08-15 16: 24: 34
Программа кодирования : mkvmerge v49.0.0 (\'Sick Of Losing Soulmates\') 64-bit
Библиотека кодирования : libebml v1.4.0 + libmatroska v1.6.1
Обложка : Yes
Attachments : cover
Видео
Идентификатор : 1
Формат : HEVC
Формат/Информация : High Efficiency Video Coding
Профиль формата : Main10@L4.1@High
Идентификатор кодека : V_MPEGH/ISO/HEVC
Продолжительность : 2 ч. 0 м.
Битрейт : 14, 7 Мбит/сек
Ширина : 1920 пикселей
Высота : 1040 пикселей
Соотношение сторон : 1, 85: 1
Режим частоты кадров : Постоянный
Частота кадров : 23, 976 (23976/1000) кадра/сек
Частота кадров в оригинале : 23, 976 (24000/1001) кадра/сек
Цветовое пространство : YUV
Субдискретизация насыщенности : 4: 2: 0
Битовая глубина : 10 бит
Бит/(Пиксели*Кадры) : 0.307
Размер потока : 12, 4 Гбайт (93%)
Библиотека кодирования : x265 3.3+1-g554c887ac: WindowsMSVC 192464 bit 10bit
Настройки программы : cpuid=1111039/frame-threads=3/numa-pools=12/wpp/no-pmode/no-pme/no-psnr/no-ssim/log-level=2/input-csp=1/input-res=1920x1040/interlace=0/total-frames=169069/level-idc=41/high-tier=1/uhd-bd=0/ref=5/no-allow-non-conformance/no-repeat-t_heads/annexb/no-aud/no-hrd/info/hash=0/no-temporal-layers/open-gop/min-keyint=23/keyint=240/gop-lookahead=0/bframes=8/b-adapt=2/b-pyramid/bframe-bias=0/rc-lookahead=60/lookahead-slices=4/scenecut=40/hist-scenecut=0/radl=0/no-splice/no-intra-refresh/ctu=32/min-cu-size=8/rect/amp/max-tu-size=32/tu-inter-depth=4/tu-intra-depth=4/limit-tu=1/rdoq-level=2/dynamic-rd=0.00/no-ssim-rd/signhide/no-tskip/nr-intra=0/nr-inter=0/no-constrained-intra/no-strong-intra-smoothing/max-merge=4/limit-refs=2/limit-modes/me=3/subme=7/merange=57/temporal-mvp/no-frame-dup/no-hme/weightp/weightb/no-analyze-src-pics/deblock=-3: -3/no-sao/no-sao-non-deblock/rd=6/selective-sao=0/no-early-skip/rskip/no-fast-intra/no-tskip-fast/no-cu-lossless/no-b-intra/no-splitrd-skip/rdpenalty=0/psy-rd=2.00/psy-rdoq=1.00/no-rd-refine/no-lossless/cbqpoffs=0/crqpoffs=0/rc=crf/crf=20.0/qcomp=0.60/qpstep=4/stats-write=0/stats-read=0/vbv-maxrate=50000/vbv-bufsize=50000/vbv-init=0.9/crf-max=0.0/crf-min=0.0/ipratio=1.40/pbratio=1.30/aq-mode=1/aq-strength=1.00/no-cutree/zone-count=0/no-strict-cbr/qg-size=32/no-rc-grain/qpmax=69/qpmin=0/no-const-vbv/sar=1/overscan=0/videoformat=5/range=0/colorprim=1/transfer=1/colormatrix=1/chromaloc=0/display-window=0/cll=0, 0/min-luma=0/max-luma=1023/log2-max-poc-lsb=8/vui-timing-info/vui-hrd-info/slices=1/no-opt-qp-pps/no-opt-ref-list-length-pps/no-multi-pass-opt-rps/scenecut-bias=0.05/hist-threshold=0.01/no-opt-cu-delta-qp/no-aq-motion/no-hdr10/no-hdr10-opt/no-dhdr10-opt/no-idr-recovery-sei/analysis-reuse-level=0/analysis-save-reuse-level=0/analysis-load-reuse-level=0/scale-factor=0/refine-intra=0/refine-inter=0/refine-mv=1/refine-ctu-distortion=0/no-limit-sao/ctu-info=0/no-lowpass-dct/refine-analysis-type=0/copy-pic=1/max-ausize-factor=1.0/no-dynamic-refine/no-single-sei/no-hevc-aq/no-svt/no-field/qp-adaptation-range=1.00/no-scenecut-aware-qpconformance-window-offsets/right=0/bottom=0
Default : Да
Forced : Нет
Цветовой диапазон : Limited
Основные цвета : BT.709
Характеристики трансфера : BT.709
Коэффициенты матрицы : BT.709
Аудио #1
Идентификатор : 2
Формат : AC-3
Формат/Информация : Audio Coding 3
Идентификатор кодека : A_AC3
Продолжительность : 2 ч. 0 м.
Вид битрейта : Постоянный
Битрейт : 192 Кбит/сек
Каналы : 2 канала
Расположение каналов : Front: L R
Частота : 48, 0 КГц
Частота кадров : 31, 250 кадров/сек (1536 SPF)
Битовая глубина : 16 бит
Метод сжатия : С потерями
Размер потока : 165 Мбайт (1%)
Заголовок : MVO HTB
Язык : Russian
ServiceKind/String : Complete Main
Default : Да
Forced : Нет
Аудио #2
Идентификатор : 3
Формат : AC-3
Формат/Информация : Audio Coding 3
Идентификатор кодека : A_AC3
Продолжительность : 2 ч. 0 м.
Вид битрейта : Постоянный
Битрейт : 192 Кбит/сек
Каналы : 2 канала
Расположение каналов : Front: L R
Частота : 48, 0 КГц
Частота кадров : 31, 250 кадров/сек (1536 SPF)
Битовая глубина : 16 бит
Метод сжатия : С потерями
Размер потока : 165 Мбайт (1%)
Заголовок : MVO Paramount Channel
Язык : Russian
ServiceKind/String : Complete Main
Default : Нет
Forced : Нет
Аудио #3
Идентификатор : 4
Формат : AC-3
Формат/Информация : Audio Coding 3
Идентификатор кодека : A_AC3
Продолжительность : 2 ч. 0 м.
Вид битрейта : Постоянный
Битрейт : 448 Кбит/сек
Каналы : 6 каналов
Расположение каналов : Front: L C R, Side: L R, LFE
Частота : 48, 0 КГц
Частота кадров : 31, 250 кадров/сек (1536 SPF)
Битовая глубина : 16 бит
Метод сжатия : С потерями
Размер потока : 386 Мбайт (3%)
Заголовок : AVO Сергей Визгунов
Язык : Russian
ServiceKind/String : Complete Main
Default : Нет
Forced : Нет
Аудио #4
Идентификатор : 5
Формат : AC-3
Формат/Информация : Audio Coding 3
Идентификатор кодека : A_AC3
Продолжительность : 2 ч. 0 м.
Вид битрейта : Постоянный
Битрейт : 224 Кбит/сек
Каналы : 2 канала
Расположение каналов : Front: L R
Частота : 48, 0 КГц
Частота кадров : 31, 250 кадров/сек (1536 SPF)
Битовая глубина : 16 бит
Метод сжатия : С потерями
Размер потока : 193 Мбайт (1%)
Заголовок : Original
Язык : English
ServiceKind/String : Complete Main
Default : Нет
Forced : Нет
Текст #1
Идентификатор : 6
Формат : UTF-8
Идентификатор кодека : S_TEXT/UTF8
Идентификатор кодека/Информация : UTF-8 Plain Text
Продолжительность : 1 ч. 56 м.
Битрейт : 76 бит/сек
ElementCount : 1189
Размер потока : 65, 5 Кбайт (0%)
Язык : Russian
Default : Нет
Forced : Нет
Текст #2
Идентификатор : 7
Формат : UTF-8
Идентификатор кодека : S_TEXT/UTF8
Идентификатор кодека/Информация : UTF-8 Plain Text
Продолжительность : 1 ч. 59 м.
Битрейт : 58 бит/сек
ElementCount : 1582
Размер потока : 51, 1 Кбайт (0%)
Язык : English
Default : Нет
Forced : Нет
Меню
00: 00: 00.000 : en: Prologue: Why God Made Father
00: 02: 23.268 : en: Illustrated Credits
00: 04: 11.000 : en: Father\'s Day: About Aunt Bedelia
00: 08: 18.039 : en: Instead of Cake
00: 12: 01.679 : en: Back for His Slice
00: 13: 55.918 : en: Goings- on in the Graveyard
00: 17: 37.806 : en: Something\'s In the Kitchen with Sylvia
00: 19: 21.326 : en: I Got My Cake
00: 21: 03.637 : en: The Lonesome Death of Jordy Verrill
00: 22: 16.585 : en: How Much for the Meteor?
00: 25: 04.878 : en: Something\'s Growing
00: 31: 07.198 : en: To Bathe or Not To
00: 33: 43.438 : en: A Green Outlook
00: 35: 13.111 : en: Something to Tide You Over; No Exceptions
00: 38: 30.808 : en: No Comfort at Comfort Point
00: 42: 34.802 : en: High Tide for Harry and Becky
00: 48: 22.774 : en: I\'m Gonna Get You, Richard
00: 51: 14.488 : en: Richard\'s Not Alone
00: 56: 31.304 : en: Showtime for Richard
01: 00: 04.434 : en: The Crate; Under the Stairs
01: 00: 53.775 : en: The Faculty Reception
01: 04: 55.683 : en: Henry Takes Aim
01: 06: 11.592 : en: Mike\'s No Longer Handy
01: 13: 45.254 : en: Pretty Far Out, Professor Stanley
01: 16: 53.233 : en: Charlie Investigates the Bite Marks
01: 19: 20.297 : en: Henry Gets Ideas
01: 24: 25.018 : en: An Invitation to Wilma
01: 28: 48.990 : en: An Entirely New Experience
01: 32: 06.979 : en: Just Tell It to Call You Billy
01: 35: 01.028 : en: Evidence Disposal
01: 36: 22.443 : en: What If It Gets Out?
01: 38: 38.704 : en: They\'re Creeping Up on You
01: 39: 44.853 : en: Heads Are Going to Roll
01: 41: 36.340 : en: I Loathe Bugs
01: 43: 34.958 : en: A Widow\'s Best Wishes
01: 45: 50.969 : en: You Like Your Job, Reynolds?
01: 48: 25.123 : en: Dealing with Pests Through the Peephole
01: 49: 59.801 : en: Lights Out- and Bugs Out
01: 54: 00.375 : en: Bugs Got His Tongue
01: 55: 14.490 : en: Needling Dad
01: 57: 31.294 : en: End Credits
 
Уважаемый посетитель, Вы зашли на сайт как незарегистрированный пользователь. Мы рекомендуем Вам зарегистрироваться либо зайти на сайт под своим именем.

Другие новости по теме:

  • Калейдоскоп ужасов 2 / Creepshow 2 (1987) BDRemux [H.264 / 1080p]
  • Калейдоскоп ужасов / Creepshow (1982) BDRip [H.264 / 720p] [Remastered]
  • Калейдоскоп ужасов / Creepshow (2019) WEB-DL [H.264 / 1080p] (сезон 1, серии 1 из 13) HDRezka Studio (обновляемая)


  • Информация
    Посетители, находящиеся в группе Гости, не могут оставлять комментарии в данной новости.
    Главная страница | Регистрация | Добавить новость | Новое на сайте Copyright © 2019. bolt.mmix.club All Rights Reserved