Подписывайся на наш канал в Telegram https://t.me/torrentok и получи доступ к торрентам без ограничений!
. bolt.mmix.club
Авторские права
con...@...Показать
Вход на сайт
Логин:
Пароль:
 
Навигация по сайту
Популярные статьи

Торрент трекер | Скачать торрент | Скачать через Торрент | Скачать торрент бесплатно | Скачать торрент без регистрации Фильмы торрент скачать Бигглз: Приключения во времени / Biggles: Adventures in Time (1986) BDRip [H.264 / 1080p] торрент скачать бесплатно

Бигглз: Приключения во времени / Biggles: Adventures in Time (1986) BDRip [H.264 / 1080p] торрент скачать бесплатно

Фильмы торрент скачать
Бигглз: Приключения во времени / Biggles: Adventures in Time (1986) BDRip [H.264 / 1080p]Производство: Великобритания, США/Compact Yellowbill, Tambarle
Жанр: фантастика, приключения, семейный, военный
Режиссер: Джон Хаф

Актеры
Нил Диксон, Алекс Хайд-Вайт, Фиона Хатчинсон, Питер Кушинг, Маркус Гилберт, Уильям Хуткинс, Алан Полонски, Франческа Гоншо, Майкл Сиберри, Джеймс Сэксон

Описание

Что делать, если вы оказались временным близнецом прославленного аса Первой мировой войны, и вас постоянно в самые неожиданные моменты отбрасывает в 1917 год и возвращает в настоящее?
Вам ничего не остается, как возложить на себя сверхзадачу помочь английским войскам уничтожить секретное оружие немцев в 1917-м и спасать себя и Бигглза от полиции в настоящем...


Рейтинг MPAA: PG (рекомендуется присутствие родителей)
Продолжительность: 01: 32: 22
Качество видео: BDRip
Перевод: Многоголосый профессиональный, авторский
Субтитры: отсутствуют
Видео: AVC/H.264, 1920x1032, ~11 mbps
Аудио 1: AC3, 6 ch, 448 kbps, Русский (MVO R5)
Аудио 2: AC3, 6 ch, 448 kbps, Русский (AVO А.Гаврилов)
Аудио 3: AC3, 6 ch, 448 kbps, Английский
Общее
Уникальный идентификатор : 243285339364474677498845846479503371179 (0xB7070D509BE5615EAF782CC058F82BAB)
Полное имя : F: CINEMABiggles.1986.BDRip.1080p.mkv
Формат : Matroska
Версия формата : Version 4
Размер файла : 7, 96 Гбайт
Продолжительность : 1 ч. 32 м.
Общий поток : 12, 3 Мбит/сек
Название фильма : Biggles: Adventures in Time (1986)
Дата кодирования : UTC 2020-08-17 11: 10: 04
Программа кодирования : mkvmerge v8.2.0 (\'World of Adventure\') 64bit
Библиотека кодирования : libebml v1.3.1 + libmatroska v1.4.2
Видео
Идентификатор : 1
Формат : AVC
Формат/Информация : Advanced Video Codec
Профиль формата : High@L4.1
Настройки формата : CABAC/5 Ref Frames
Параметр CABAC формата : Да
Параметр RefFrames формата : 5 кадров
Идентификатор кодека : V_MPEG4/ISO/AVC
Продолжительность : 1 ч. 32 м.
Битрейт : 11, 0 Мбит/сек
Ширина : 1 920 пикселей
Высота : 1 032 пикселя
Соотношение сторон : 1, 85: 1
Режим частоты кадров : Постоянный
Частота кадров : 24, 000 кадра/сек
Цветовое пространство : YUV
Субдискретизация насыщенности : 4: 2: 0
Битовая глубина : 8 бит
Тип развёртки : Прогрессивная
Бит/(Пиксели*Кадры) : 0.231
Размер потока : 7, 09 Гбайт (89%)
Заголовок : Biggles: Adventures in Time
Библиотека кодирования : x264 core 146 r2538 121396c
Настройки программы : cabac=1/ref=5/deblock=1: -1: -1/analyse=0x3: 0x133/me=umh/subme=11/psy=1/psy_rd=1.07: 0.23/mixed_ref=1/me_range=32/chroma_me=1/trellis=2/8x8dct=1/cqm=0/deadzone=21, 11/fast_pskip=0/chroma_qp_offset=-3/threads=12/lookahead_threads=3/sliced_threads=0/nr=0/decimate=1/interlaced=0/bluray_compat=0/constrained_intra=0/bframes=12/b_pyramid=2/b_adapt=2/b_bias=0/direct=3/weightb=1/open_gop=0/weightp=2/keyint=250/keyint_min=23/scenecut=40/intra_refresh=0/rc=2pass/mbtree=0/bitrate=11000/ratetol=1.0/qcomp=0.60/qpmin=0/qpmax=69/qpstep=4/cplxblur=20.0/qblur=0.5/ip_ratio=1.40/pb_ratio=1.30/aq=2: 1.00
Язык : English
Default : Да
Forced : Нет
Аудио #1
Идентификатор : 2
Формат : AC-3
Формат/Информация : Audio Coding 3
Коммерческое название : Dolby Digital
Идентификатор кодека : A_AC3
Продолжительность : 1 ч. 32 м.
Вид битрейта : Постоянный
Битрейт : 448 Кбит/сек
Каналы : 6 каналов
Channel layout : L R C LFE Ls Rs
Частота : 48, 0 КГц
Частота кадров : 31, 250 кадров/сек (1536 SPF)
Метод сжатия : С потерями
Размер потока : 296 Мбайт (4%)
Заголовок : MVO R5
Язык : Russian
Service kind : Complete Main
Default : Да
Forced : Нет
Аудио #2
Идентификатор : 3
Формат : AC-3
Формат/Информация : Audio Coding 3
Коммерческое название : Dolby Digital
Идентификатор кодека : A_AC3
Продолжительность : 1 ч. 32 м.
Вид битрейта : Постоянный
Битрейт : 448 Кбит/сек
Каналы : 6 каналов
Channel layout : L R C LFE Ls Rs
Частота : 48, 0 КГц
Частота кадров : 31, 250 кадров/сек (1536 SPF)
Метод сжатия : С потерями
Размер потока : 296 Мбайт (4%)
Заголовок : AVO А.Гаврилов
Язык : Russian
Service kind : Complete Main
Default : Нет
Forced : Нет
Аудио #3
Идентификатор : 4
Формат : AC-3
Формат/Информация : Audio Coding 3
Коммерческое название : Dolby Digital
Идентификатор кодека : A_AC3
Продолжительность : 1 ч. 32 м.
Вид битрейта : Постоянный
Битрейт : 448 Кбит/сек
Каналы : 6 каналов
Channel layout : L R C LFE Ls Rs
Частота : 48, 0 КГц
Частота кадров : 31, 250 кадров/сек (1536 SPF)
Метод сжатия : С потерями
Размер потока : 296 Мбайт (4%)
Заголовок : Original
Язык : English
Service kind : Complete Main
Default : Нет
Forced : Нет
Меню
00: 00: 00.000 : en: Chapter 01
00: 04: 59.750 : en: Chapter 02
00: 09: 59.791 : en: Chapter 03
00: 15: 00.500 : en: Chapter 04
00: 20: 00.375 : en: Chapter 05
00: 25: 00.583 : en: Chapter 06
00: 30: 00.208 : en: Chapter 07
00: 35: 00.416 : en: Chapter 08
00: 39: 59.750 : en: Chapter 09
00: 45: 00.208 : en: Chapter 10
00: 49: 59.833 : en: Chapter 11
00: 55: 00.458 : en: Chapter 12
01: 00: 00.250 : en: Chapter 13
01: 05: 00.125 : en: Chapter 14
01: 09: 59.875 : en: Chapter 15
01: 15: 00.500 : en: Chapter 16
01: 20: 00.583 : en: Chapter 17
01: 24: 59.958 : en: Chapter 18
01: 30: 00.250 : en: Chapter 19

Скриншоты для ознакомления



Все одноименные релизы в Клубе
Время раздачи: c 5 до 19 мск (до появления первых 3-5 скачавших)
 
Уважаемый посетитель, Вы зашли на сайт как незарегистрированный пользователь. Мы рекомендуем Вам зарегистрироваться либо зайти на сайт под своим именем.

Другие новости по теме:

  • Бигглз: Приключения во времени / Biggles: Adventures In Time (1986) BDRip [H.264 / 720p] скачать через торрент бесплатно
  • Бигглз: Приключения во времени / Biggles: Adventures In Time (1986) BDRemux [H.264 / 1080p]
  • Бигглз: Приключения во времени / Biggles (1986) BDRip [H.264 / 720p]
  • Бигглз: Приключения во времени / Biggles: Adventures In Time (1986) BDRemux [H.264 / 1080p]
  • Бигглз: Приключения во времени / Biggles (1986) BDRip


  • Информация
    Посетители, находящиеся в группе Гости, не могут оставлять комментарии в данной новости.
    Главная страница | Регистрация | Добавить новость | Новое на сайте Copyright © 2019. bolt.mmix.club All Rights Reserved