Подписывайся на наш канал в Telegram https://t.me/torrentok и получи доступ к торрентам без ограничений!
. bolt.mmix.club
Авторские права
con...@...Показать
Вход на сайт
Логин:
Пароль:
 
Навигация по сайту
Популярные статьи

Торрент трекер | Скачать торрент | Скачать через Торрент | Скачать торрент бесплатно | Скачать торрент без регистрации Фильмы торрент скачать Робот по имени Чаппи / Chappie (2015) UHD BDRip [H.265 / 2160p] [4K, HDR, 10-bit] торрент скачать бесплатно

Робот по имени Чаппи / Chappie (2015) UHD BDRip [H.265 / 2160p] [4K, HDR, 10-bit] торрент скачать бесплатно

Фильмы торрент скачать
Робот по имени Чаппи / Chappie (2015) UHD BDRip [H.265 / 2160p] [4K, HDR, 10-bit]Производство: США, Мексика, ЮАР/Alpha Core, Columbia Pictures, Genre Films, LStar Capital, Media Rights Capital
Жанр фантастика, боевик, триллер, драма, криминал
Режиссер: Нил Бломкамп

Актеры
Шарлто Копли, Дев Патель, Ниндзя, Йоланди Фиссер, Хосе Пабло Кантилльо, Хью Джекман, Сигурни Уивер, Брэндон Оре, Джонни Селема, Андерсон Купер

Описание

Чаппи — вундеркинд. Как и любой другой ребенок, он попадает под влияние своего окружения, и только его сердце и душа помогут ему найти свой путь. Но есть одна вещь, которая делает Чаппи непохожим на всех остальных: он — первый робот, способный чувствовать и думать.



Возраст: 16+ (зрителям, достигшим 16 лет)
Рейтинг MPAA: R (лицам до 17 лет обязательно присутствие взрослого)
Релиз от: VoX
Продолжительность: 02: 00: 19
Качество видео: UHD BDRip 2160p
Перевод: Дублированный (Blu-Ray), Авторский (А. Гаврилов, Ю. Сербин, 2x Д. Есарев, М. Яроцкий)
Субтитры: Русские (Forced, Full), Английские (Forced, 2x Full, SDH)
Видео: HEVC/H.265, 29, 3 Mbps, 3840x1600, 10 bits, HDR10, BT.2020
Аудио 1 : AC3, 5.1, 640 kbps - Dub, Blu-Ray
Аудио 2 : DTS, 5.1, 1509 kbps - AVO, А. Гаврилов
Аудио 3 : DTS, 5.1, 1509 kbps - AVO, Ю. Сербин
Аудио 4 : DTS, 5.1, 1509 kbps - AVO, Д. Есарев (с цензурой)
Аудио 5 : DTS, 5.1, 1509 kbps - AVO, Д. Есарев (без цензуры)
Аудио 6 : DTS, 5.1, 1509 kbps - AVO, М. Яроцкий (без цензуры)
Аудио 7 : E-AC3, 7.1, 1024 kbps - английскийGeneral
Unique ID : 47252825933470207388336873661318165081 (0x238C9030A45D7A56E3EF600779FDF259)
Complete name : C: UsersVortexDesktopChappie.2015.UHD.BDRip.2160p.HDR.VoX.mkv
Format : Matroska
Format version : Version 4
File size : 32.4 GiB
Duration : 2 h 0 min
Overall bit rate : 38.6 Mb/s
Encoded date : UTC 2020-08-17 08: 24: 47
Writing application : mkvmerge v44.0.0 (\'Domino\') 64-bit
Writing library : libebml v1.3.10 + libmatroska v1.5.2
Cover : Yes
Attachments : Cover.jpg
Video
ID : 1
Format : HEVC
Format/Info : High Efficiency Video Coding
Format profile : Main10@L5.1@High
HDR format : SMPTE ST 2086, HDR10 compatible
Codec ID : V_MPEGH/ISO/HEVC
Duration : 2 h 0 min
Bit rate : 29.3 Mb/s
Width : 3 840 pixels
Height : 1 600 pixels
Display aspect ratio : 2.40: 1
Frame rate mode : Constant
Frame rate : 23.976 (24000/1001) FPS
Color space : YUV
Chroma subsampling : 4: 2: 0 (Type 2)
Bit depth : 10 bits
Bits/(Pixel*Frame) : 0.199
Stream size : 24.7 GiB (76%)
Writing library : x265 3.4+6-g73f96ff39: WindowsGCC 11.0.064 bit 10bit
Encoding settings : cpuid=1111039/frame-threads=2/numa-pools=4/wpp/no-pmode/no-pme/no-psnr/no-ssim/log-level=2/input-csp=1/input-res=3840x1600/interlace=0/total-frames=173088/level-idc=51/high-tier=1/uhd-bd=0/ref=4/no-allow-non-conformance/repeat-t_heads/annexb/aud/hrd/info/hash=0/no-temporal-layers/no-open-gop/min-keyint=23/keyint=250/gop-lookahead=0/bframes=8/b-adapt=2/b-pyramid/bframe-bias=0/rc-lookahead=40/lookahead-slices=4/scenecut=40/hist-scenecut=0/radl=0/no-splice/no-intra-refresh/ctu=64/min-cu-size=8/no-rect/no-amp/max-tu-size=32/tu-inter-depth=4/tu-intra-depth=4/limit-tu=4/rdoq-level=2/dynamic-rd=0.00/no-ssim-rd/signhide/no-tskip/nr-intra=0/nr-inter=0/no-constrained-intra/strong-intra-smoothing/max-merge=4/limit-refs=1/limit-modes/me=3/subme=5/merange=57/temporal-mvp/no-frame-dup/no-hme/weightp/weightb/no-analyze-src-pics/deblock=-3: -3/no-sao/no-sao-non-deblock/rd=4/selective-sao=0/no-early-skip/rskip/no-fast-intra/no-tskip-fast/no-cu-lossless/b-intra/no-splitrd-skip/rdpenalty=0/psy-rd=2.00/psy-rdoq=2.00/no-rd-refine/no-lossless/cbqpoffs=-2/crqpoffs=-2/rc=crf/crf=16.5/qcomp=0.60/qpstep=4/stats-write=0/stats-read=0/vbv-maxrate=160000/vbv-bufsize=160000/vbv-init=0.9/crf-max=0.0/crf-min=0.0/ipratio=1.30/pbratio=1.20/aq-mode=2/aq-strength=1.00/no-cutree/zone-count=0/no-strict-cbr/qg-size=32/no-rc-grain/qpmax=69/qpmin=0/no-const-vbv/sar=0/overscan=0/videoformat=5/range=0/colorprim=9/transfer=16/colormatrix=9/chromaloc=1/chromaloc-top=2/chromaloc-bottom=2/display-window=0/master-display=G(13250, 34500)B(7500, 3000)R(34000, 16000)WP(15635, 16450)L(40000000, 50)/cll=8154, 1570/min-luma=0/max-luma=1023/log2-max-poc-lsb=8/vui-timing-info/vui-hrd-info/slices=1/no-opt-qp-pps/no-opt-ref-list-length-pps/no-multi-pass-opt-rps/scenecut-bias=0.00/hist-threshold=0.01/no-opt-cu-delta-qp/no-aq-motion/hdr10/hdr10-opt/no-dhdr10-opt/no-idr-recovery-sei/analysis-reuse-level=0/analysis-save-reuse-level=0/analysis-load-reuse-level=0/scale-factor=0/refine-intra=0/refine-inter=0/refine-mv=1/refine-ctu-distortion=0/no-limit-sao/ctu-info=0/no-lowpass-dct/refine-analysis-type=0/copy-pic=1/max-ausize-factor=1.0/no-dynamic-refine/no-single-sei/no-hevc-aq/no-svt/no-field/qp-adaptation-range=1.00/no-scenecut-aware-qpconformance-window-offsets/right=0/bottom=0/decoder-max-rate=0
Default : Yes
Forced : No
Color range : Limited
Color primaries : BT.2020
Transfer characteristics : PQ
Matrix coefficients : BT.2020 non-constant
Mastering display color pri : Display P3
Mastering display luminance : min: 0.0050 cd/m2, max: 4000 cd/m2
Maximum Content Light Level : 8154 cd/m2
Maximum Frame-Average Light : 1570 cd/m2
Audio #1
ID : 2
Format : AC-3
Format/Info : Audio Coding 3
Commercial name : Dolby Digital
Codec ID : A_AC3
Duration : 2 h 0 min
Bit rate mode : Constant
Bit rate : 640 kb/s
Channel(s) : 6 channels
Channel layout : L R C LFE Ls Rs
Sampling rate : 48.0 kHz
Frame rate : 31.250 FPS (1536 SPF)
Compression mode : Lossy
Stream size : 551 MiB (2%)
Title : Dub, Blu-ray
Language : Russian
Service kind : Complete Main
Default : Yes
Forced : No
Audio #2
ID : 3
Format : DTS
Format/Info : Digital Theater Systems
Codec ID : A_DTS
Duration : 2 h 0 min
Bit rate mode : Constant
Bit rate : 1 509 kb/s
Channel(s) : 6 channels
Channel layout : C L R Ls Rs LFE
Sampling rate : 48.0 kHz
Frame rate : 93.750 FPS (512 SPF)
Bit depth : 24 bits
Compression mode : Lossy
Stream size : 1.27 GiB (4%)
Title : А. Гаврилов
Language : Russian
Default : No
Forced : No
Audio #3
ID : 4
Format : DTS
Format/Info : Digital Theater Systems
Codec ID : A_DTS
Duration : 2 h 0 min
Bit rate mode : Constant
Bit rate : 1 509 kb/s
Channel(s) : 6 channels
Channel layout : C L R Ls Rs LFE
Sampling rate : 48.0 kHz
Frame rate : 93.750 FPS (512 SPF)
Bit depth : 24 bits
Compression mode : Lossy
Stream size : 1.27 GiB (4%)
Title : Ю. Сербин
Language : Russian
Default : No
Forced : No
Audio #4
ID : 5
Format : DTS
Format/Info : Digital Theater Systems
Codec ID : A_DTS
Duration : 2 h 0 min
Bit rate mode : Constant
Bit rate : 1 509 kb/s
Channel(s) : 6 channels
Channel layout : C L R Ls Rs LFE
Sampling rate : 48.0 kHz
Frame rate : 93.750 FPS (512 SPF)
Bit depth : 24 bits
Compression mode : Lossy
Stream size : 1.27 GiB (4%)
Title : Д. Есарев - с цензурой
Language : Russian
Default : No
Forced : No
Audio #5
ID : 6
Format : DTS
Format/Info : Digital Theater Systems
Codec ID : A_DTS
Duration : 2 h 0 min
Bit rate mode : Constant
Bit rate : 1 509 kb/s
Channel(s) : 6 channels
Channel layout : C L R Ls Rs LFE
Sampling rate : 48.0 kHz
Frame rate : 93.750 FPS (512 SPF)
Bit depth : 24 bits
Compression mode : Lossy
Stream size : 1.27 GiB (4%)
Title : Д. Есарев - без цензуры
Language : Russian
Default : No
Forced : No
Audio #6
ID : 7
Format : DTS
Format/Info : Digital Theater Systems
Codec ID : A_DTS
Duration : 2 h 0 min
Bit rate mode : Constant
Bit rate : 1 509 kb/s
Channel(s) : 6 channels
Channel layout : C L R Ls Rs LFE
Sampling rate : 48.0 kHz
Frame rate : 93.750 FPS (512 SPF)
Bit depth : 24 bits
Compression mode : Lossy
Stream size : 1.27 GiB (4%)
Title : М. Яроцкий
Language : Russian
Default : No
Forced : No
Audio #7
ID : 8
Format : E-AC-3
Format/Info : Enhanced AC-3
Commercial name : Dolby Digital Plus
Codec ID : A_EAC3
Duration : 2 h 0 min
Bit rate mode : Constant
Bit rate : 1 024 kb/s
Channel(s) : 8 channels
Channel layout : L R C LFE Ls Rs Lb Rb
Sampling rate : 48.0 kHz
Frame rate : 31.250 FPS (1536 SPF)
Compression mode : Lossy
Stream size : 881 MiB (3%)
Title : Original
Language : English
Service kind : Complete Main
Default : No
Forced : No
Text #1
ID : 9
Format : UTF-8
Codec ID : S_TEXT/UTF8
Codec ID/Info : UTF-8 Plain Text
Duration : 1 h 15 min
Bit rate : 1 b/s
Count of elements : 12
Stream size : 829 Bytes (0%)
Title : Forced
Language : Russian
Default : Yes
Forced : No
Text #2
ID : 10
Format : UTF-8
Codec ID : S_TEXT/UTF8
Codec ID/Info : UTF-8 Plain Text
Duration : 1 h 52 min
Bit rate : 97 b/s
Count of elements : 1713
Stream size : 80.0 KiB (0%)
Title : Full
Language : Russian
Default : No
Forced : No
Text #3
ID : 11
Format : UTF-8
Codec ID : S_TEXT/UTF8
Codec ID/Info : UTF-8 Plain Text
Duration : 1 h 31 min
Bit rate : 1 b/s
Count of elements : 40
Stream size : 862 Bytes (0%)
Title : Forced
Language : English
Default : No
Forced : No
Text #4
ID : 12
Format : UTF-8
Codec ID : S_TEXT/UTF8
Codec ID/Info : UTF-8 Plain Text
Duration : 1 h 52 min
Bit rate : 61 b/s
Count of elements : 1608
Stream size : 50.9 KiB (0%)
Title : Full v.1
Language : English
Default : No
Forced : No
Text #5
ID : 13
Format : UTF-8
Codec ID : S_TEXT/UTF8
Codec ID/Info : UTF-8 Plain Text
Duration : 1 h 53 min
Bit rate : 62 b/s
Count of elements : 1662
Stream size : 52.1 KiB (0%)
Title : Full v.2
Language : English
Default : No
Forced : No
Text #6
ID : 14
Format : UTF-8
Codec ID : S_TEXT/UTF8
Codec ID/Info : UTF-8 Plain Text
Duration : 1 h 53 min
Bit rate : 68 b/s
Count of elements : 1882
Stream size : 57.0 KiB (0%)
Title : SDH
Language : English
Default : No
Forced : No
Menu
00: 00: 00.000 : en: Chapter 0
00: 03: 37.008 : en: Chapter 1
00: 09: 55.261 : en: Chapter 2
00: 13: 50.496 : en: Chapter 3
00: 21: 53.646 : en: Chapter 4
00: 31: 17.542 : en: Chapter 5
00: 37: 19.320 : en: Chapter 6
00: 46: 58.733 : en: Chapter 7
00: 54: 36.690 : en: Chapter 8
01: 06: 12.927 : en: Chapter 9
01: 09: 57.652 : en: Chapter 10
01: 16: 48.395 : en: Chapter 11
01: 24: 59.553 : en: Chapter 12
01: 31: 35.198 : en: Chapter 13
01: 42: 36.942 : en: Chapter 14
01: 50: 03.597 : en: Chapter 15
• В фильме снялась южноафриканская рэп-рейв группа Die Antwoord, участники которой являются поклонниками работ Нила Бломкампа. У Ниндзя даже есть татуировка D 9 на внутренней стороне губы в честь его фильма Район №9 (2009).
• На создание антенны в виде уха кролика Нила Бломкампа вдохновил Бриарей – персонаж манги Мусамунэ Сиро Яблочное зёрнышко (Appleseed), поклонником которой является Бломкамп.
• Съемки фильма начались в последних числах октября 2013 года в самом крупном городе ЮАР – Йоханнесбурге, и завершились в феврале 2014 года.
• В основу фильма легла короткометражка Нила Бломкампа Тетра Ваал (2004).
• В конце фильма Чаппи соединяется с сервером 162.244.164.51 для изготовления своей мамы. В реальной жизни это адрес сервера хостинговой компании SoftLayer Technologies, Inc. (IBM), позиционирующей себя как самая большая облачная сетевая структура в мире.----------MEDiA iNFO------------
SOURCE TYPE.....: 2160p.UHD.Blu-ray.HEVC.Atmos.TrueHD7.1
ViDEO BiTRATE...: x265 Main 10 L5.1 High @ 29, 3 Mbps
FRAME RATE......: 23.976 fps
RESOLUTiON......: 3840 x 1600
AUDiO...........: Russian, English
SUBTiTLE........: Russian, English
RUNTIME.........: 2h: 00m: 19s
ENCODER ........: Vox
----------x265 iNFO------------
x265 info: frame I: 703, Avg QP: 13.31 kb/s: 52669.35
x265 info: frame P: 36851, Avg QP: 14.37 kb/s: 39982.48
x265 info: frame B: 135534, Avg QP: 15.99 kb/s: 26319.87
x265 info: Weighted P-Frames: Y: 3.7% UV: 2.8%
x265 info: Weighted B-Frames: Y: 2.8% UV: 2.0%
x265 info: consecutive B-frames: 8.6% 6.9% 11.7% 27.3% 8.3% 20.9% 7.5% 4.3% 4.5%

Скриншоты для ознакомления



Все одноименные релизы в Клубе
Время раздачи: 24/7 (до появления первых 3-5 скачавших)
 
Уважаемый посетитель, Вы зашли на сайт как незарегистрированный пользователь. Мы рекомендуем Вам зарегистрироваться либо зайти на сайт под своим именем.

Другие новости по теме:

  • Робот по имени Чаппи / Chappie (2015) WEBRip [1080p] [Трейлер]
  • Робот по имени Чаппи / Chappie (2015) CamRip скачать через торрент бесплатно
  • Робот по имени Чаппи / Chappie (2015) CamRip скачать через торрент бесплатно
  • Hans Zimmer - Робот по имени Чаппи / Chappie (Original Motion Picture Soundtrack) (2015) [MP3|320 кб / с]<Soundtrack> скачать через торрент бесплатно
  • Hans Zimmer - Робот по имени Чаппи / Chappie (Original Motion Picture Soundtrack) (2015) [FLAC|WEB-DL|Lossless]<Soundtrack> скачать через торрент бесплатно
  • Робот по имени Чаппи / Chappie (2015) TS скачать через торрент бесплатно
  • Робот по имени Чаппи / Chappie (2015) WEB-DL [H.264 / 1080p-LQ] скачать через торрент бесплатно
  • Робот по имени Чаппи / Chappie (2015) WEB-DL [H.264 / 720p-LQ] скачать через торрент бесплатно


  • Информация
    Посетители, находящиеся в группе Гости, не могут оставлять комментарии в данной новости.
    Главная страница | Регистрация | Добавить новость | Новое на сайте Copyright © 2019. bolt.mmix.club All Rights Reserved