Подписывайся на наш канал в Telegram https://t.me/torrentok и получи доступ к торрентам без ограничений!
. bolt.mmix.club
Авторские права
con...@...Показать
Вход на сайт
Логин:
Пароль:
 
Навигация по сайту
Популярные статьи

Торрент трекер | Скачать торрент | Скачать через Торрент | Скачать торрент бесплатно | Скачать торрент без регистрации Фильмы торрент скачать Ход вещей / The Swing of Things (2020) BDRemux [H.264 / 1080p] торрент скачать бесплатно

Ход вещей / The Swing of Things (2020) BDRemux [H.264 / 1080p] торрент скачать бесплатно

Фильмы торрент скачать
Ход вещей / The Swing of Things (2020) BDRemux [H.264 / 1080p]Производство: США, Redwire Pictures, Reflecting Pool Productions, Sprockefeller Pictures
Жанр: Комедия
Режиссер: Мэтт Шапира
Продюсер: Марк Крамп, Райан Р. Джонсон, Кент Парди

Актеры
Корд Оверстрит, Оливия Калпо, Люк Уилсон, Александр Вайшельбойм, Аделаида Кейн, Мэтт МакКой, Э.Э. Белл, Кэролин Хеннеси, Мария Бриз, Джон Ловиц

Описание
Том и Лора собираются пожениться на Ямайке. По недосмотру парень заказывает проведение торжеств в одном из отелей, где обычно собираются свингеры. Но отступать некуда, ведь все приглашенные на свадьбу гости уже собрались в отеле.


Возраст: 16+ Зрителям, достигшим 16 лет
Рейтинг MPAA: R Лицам до 17 обязательно присутствие взрослых
Дата мировой премьеры: 2 июля 2020
Релиз от: NNMClub
Продолжительность: 01: 33: 25
Качество видео: BDRemux 1080p
Перевод: Профессиональный (многоголосый закадровый)(iTunes)
Субтитры: Русские (Forced, Full), Английские (Full)
Видео: AVC/H.264, 1920x1080, 24.6 Mbps, 23.976 fps
Аудио 1 : AC-3, 6 ch, 384 kbps | Русский
Аудио 2 : DTS-HD MA, 6 ch, 3750 kbps | Английский
General
Unique ID : 110710502766408768115629555079864831073 (0x534A1136E063AB76C139B63ECFCECC61)
Complete name : /Volumes/Promise Pegasus/The.Swing.of.Things.BDRemux.1080p.pk.mkv
Format : Matroska
Format version : Version 4
File size : 18.8 GiB
Duration : 1 h 33 min
Overall bit rate mode : Variable
Overall bit rate : 28.8 Mb/s
Movie name : The Swing of Things BDRemux 1080p pk
Encoded date : UTC 2020-08-21 23: 40: 59
Writing application : mkvmerge v49.0.0 (\'Sick Of Losing Soulmates\') 64-bit
Writing library : libebml v1.4.0 + libmatroska v1.6.1
Video
ID : 1
Format : AVC
Format/Info : Advanced Video Codec
Format profile : High@L4.1
Format settings : CABAC/4 Ref Frames
Format settings, CABAC : Yes
Format settings, Reference frames : 4 frames
Format settings, GOP : M=3, N=12
Codec ID : V_MPEG4/ISO/AVC
Duration : 1 h 33 min
Bit rate mode : Variable
Bit rate : 24.6 Mb/s
Maximum bit rate : 37.0 Mb/s
Width : 1 920 pixels
Height : 1 080 pixels
Display aspect ratio : 16: 9
Frame rate mode : Constant
Frame rate : 23.976 (24000/1001) FPS
Color space : YUV
Chroma subsampling : 4: 2: 0
Bit depth : 8 bits
Scan type : Progressive
Bits/(Pixel*Frame) : 0.496
Stream size : 16.1 GiB (86%)
Default : Yes
Forced : No
Audio #1
ID : 2
Format : AC-3
Format/Info : Audio Coding 3
Commercial name : Dolby Digital
Codec ID : A_AC3
Duration : 1 h 33 min
Bit rate mode : Constant
Bit rate : 384 kb/s
Channel(s) : 6 channels
Channel layout : L R C LFE Ls Rs
Sampling rate : 48.0 kHz
Frame rate : 31.250 FPS (1536 SPF)
Compression mode : Lossy
Stream size : 257 MiB (1%)
Title : Russian MVO iTunes
Language : Russian
Service kind : Complete Main
Default : Yes
Forced : No
Audio #2
ID : 3
Format : DTS XLL
Format/Info : Digital Theater Systems
Commercial name : DTS-HD Master Audio
Codec ID : A_DTS
Duration : 1 h 33 min
Bit rate mode : Variable
Bit rate : 3 750 kb/s
Channel(s) : 6 channels
Channel layout : C L R Ls Rs LFE
Sampling rate : 48.0 kHz
Frame rate : 93.750 FPS (512 SPF)
Bit depth : 24 bits
Compression mode : Lossless
Stream size : 2.45 GiB (13%)
Title : English Original
Language : English
Default : No
Forced : No
Text #1
ID : 4
Format : UTF-8
Codec ID : S_TEXT/UTF8
Codec ID/Info : UTF-8 Plain Text
Duration : 1 h 25 min
Bit rate : 1 b/s
Count of elements : 35
Stream size : 1.24 KiB (0%)
Title : Russian forced
Language : Russian
Default : Yes
Forced : No
Text #2
ID : 5
Format : UTF-8
Codec ID : S_TEXT/UTF8
Codec ID/Info : UTF-8 Plain Text
Duration : 1 h 31 min
Bit rate : 121 b/s
Count of elements : 1412
Stream size : 81.4 KiB (0%)
Title : Russian full
Language : Russian
Default : No
Forced : No
Text #3
ID : 6
Format : UTF-8
Codec ID : S_TEXT/UTF8
Codec ID/Info : UTF-8 Plain Text
Duration : 1 h 31 min
Bit rate : 72 b/s
Count of elements : 1409
Stream size : 48.7 KiB (0%)
Title : English full
Language : English
Default : No
Forced : No
Menu
00: 00: 00.000 : en: Chapter 01
00: 05: 36.085 : en: Chapter 02
00: 09: 36.492 : en: Chapter 03
00: 15: 25.883 : en: Chapter 04
00: 20: 19.092 : en: Chapter 05
00: 26: 51.818 : en: Chapter 06
00: 32: 20.980 : en: Chapter 07
00: 39: 52.223 : en: Chapter 08
00: 45: 29.226 : en: Chapter 09
00: 51: 11.443 : en: Chapter 10
00: 55: 40.712 : en: Chapter 11
01: 02: 24.741 : en: Chapter 12
01: 08: 54.171 : en: Chapter 13
01: 15: 10.255 : en: Chapter 14
01: 20: 46.299 : en: Chapter 15
01: 27: 58.773 : en: Chapter 16

Скриншоты для ознакомления



Все одноименные релизы в Клубе
Время раздачи: 24/7 (круглосуточно) (до появления первых 3-5 скачавших)
 
Уважаемый посетитель, Вы зашли на сайт как незарегистрированный пользователь. Мы рекомендуем Вам зарегистрироваться либо зайти на сайт под своим именем.

Другие новости по теме:

  • Ход вещей / The Swing of Things (2020) BDRip [H.264 / 1080p]
  • Ход вещей / The Swing of Things (2020) BDRip [H.264 / 720p]


  • Информация
    Посетители, находящиеся в группе Гости, не могут оставлять комментарии в данной новости.
    Главная страница | Регистрация | Добавить новость | Новое на сайте Copyright © 2019. bolt.mmix.club All Rights Reserved