Подписывайся на наш канал в Telegram https://t.me/torrentok и получи доступ к торрентам без ограничений!
. bolt.mmix.club
Авторские права
con...@...Показать
Вход на сайт
Логин:
Пароль:
 
Навигация по сайту
Популярные статьи

Торрент трекер | Скачать торрент | Скачать через Торрент | Скачать торрент бесплатно | Скачать торрент без регистрации Фильмы торрент скачать Агент Ева / Ava (2020) WEB-DL [H.264 / 1080p-LQ] [MVO] [AD] торрент скачать бесплатно

Агент Ева / Ava (2020) WEB-DL [H.264 / 1080p-LQ] [MVO] [AD] торрент скачать бесплатно

Фильмы торрент скачать
Агент Ева / Ava (2020) WEB-DL [H.264 / 1080p-LQ] [MVO] [AD]Производство: США/Freckle Films, Voltage Pictures
Жанр: Боевик, триллер, драма, криминал, детектив
Режиссер: Тейт Тейлор

Актеры
Джессика Честейн, Коммон, Джон Малкович, Колин Фаррелл, Джина Дэвис, Диана Сильверс, Йоан Гриффит, Джоан Чэнь, Джесс Вейкслер, Janelle Feigley

Описание

Она умна, красива и чрезвычайно опасна. Перемещаясь по миру словно тень, агент по имени Ева в одиночку выполняет самые сложные задания своего руководства. Когда внезапно очередная спецоперация идет не по плану, и Ева решает выйти из игры, один из влиятельных боссов секретной службы открывает на неё охоту.


Возраст: 18+ (зрителям, достигшим 18 лет. запрещено для детей)
Рейтинг MPAA: R (лицам до 17 лет обязательно присутствие взрослого)
Дата мировой премьеры: 2 июля 2020
Дата российской премьеры: 20 августа 2020 , Вольга
Продолжительность: 01: 38: 00
Качество видео: WEB-DL
Перевод: Многоголосый любительский (AlphaProject)
Субтитры: Отсутствуют
Реклама: Банер, аудио и видео вставки
Видео: AVC/H.264, 1920х804, ~8144 Kbps
Аудио: AAC, 2 ch, 384 Kbps, русский (MVO)
Общее
Уникальный идентификатор : 184064633181941786869214306335719072763 (0x8A798F126AD2F362BF606697E85AA3FB)
Полное имя : E: DownloadsAva.2020.Pa.WEB_DL.1O8Op.mkv
Формат : Matroska
Версия формата : Version 2
Размер файла : 5, 85 Гбайт
Продолжительность : 1 ч. 38 м.
Режим общего битрейта : Переменный
Общий поток : 8 528 Кбит/сек
Дата кодирования : UTC 2020-08-21 13: 18: 22
Программа кодирования : mkvmerge v8.3.0 (\'Over the Horizon\') 64bit
Библиотека кодирования : libebml v1.3.1 + libmatroska v1.4.2
Видео
Идентификатор : 1
Формат : AVC
Формат/Информация : Advanced Video Codec
Профиль формата : High@L4.1
Настройки формата : CABAC/4 Ref Frames
Параметр CABAC формата : Да
Параметр RefFrames формата : 4 кадра
Идентификатор кодека : V_MPEG4/ISO/AVC
Продолжительность : 1 ч. 38 м.
Вид битрейта : Переменный
Битрейт : 8 144 Кбит/сек
Номинальный битрейт : 9 000 Кбит/сек
Максимальный битрейт : 9 000 Кбит/сек
Ширина : 1 920 пикселей
Высота : 804 пикселя
Соотношение сторон : 2, 40: 1
Режим частоты кадров : Постоянный
Частота кадров : 23, 976 (24000/1001) кадра/сек
Стандарт вещания : Component
Цветовое пространство : YUV
Субдискретизация насыщенности : 4: 2: 0
Битовая глубина : 8 бит
Тип развёртки : Прогрессивная
Бит/(Пиксели*Кадры) : 0.220
Размер потока : 5, 58 Гбайт (96%)
Библиотека кодирования : x264 core 155
Настройки программы : cabac=1/ref=4/deblock=1: 0: 0/analyse=0x3: 0x3/me=dia/subme=1/psy=1/psy_rd=1.00: 0.00/mixed_ref=0/me_range=16/chroma_me=1/trellis=0/8x8dct=1/cqm=1/deadzone=21, 11/fast_pskip=1/chroma_qp_offset=0/threads=24/lookahead_threads=4/sliced_threads=0/slices=1/nr=0/decimate=1/interlaced=0/minigop=0/stitchable=1/constrained_intra=0/bframes=2/b_pyramid=0/b_adapt=0/b_bias=0/direct=1/weightb=1/open_gop=1/weightp=0/keyint=240/keyint_min=23/scenecut=40/intra_refresh=0/rc_lookahead=0/rc=cbr/mbtree=0/bitrate=9000/ratetol=1.0/qcomp=0.60/qpmin=1/qpmax=69/qpstep=4/vbv_maxrate=9000/vbv_bufsize=9000/nal_hrd=vbr/filler=0/ip_ratio=1.40/pb_ratio=1.30/aq=1: 1.00
Default : Да
Forced : Нет
Цветовой диапазон : Limited
Основные цвета : BT.709
Характеристики трансфера : BT.709
Коэффициенты матрицы : BT.709
Аудио
Идентификатор : 2
Формат : AAC Main
Формат/Информация : Advanced Audio Codec
Идентификатор кодека : A_AAC-1
Продолжительность : 1 ч. 38 м.
Битрейт : 384 Кбит/сек
Каналы : 2 канала
Channel layout : L R
Частота : 48, 0 КГц
Частота кадров : 46, 875 кадров/сек (1024 SPF)
Метод сжатия : С потерями
Размер потока : 268 Мбайт (4%)
Default : Да
Forced : Нет

Скриншоты для ознакомления



Все одноименные релизы в Клубе
Время раздачи: 24/7 (мультитрекерная раздача)
 
Уважаемый посетитель, Вы зашли на сайт как незарегистрированный пользователь. Мы рекомендуем Вам зарегистрироваться либо зайти на сайт под своим именем.

Другие новости по теме:

  • Агент Лев / Le lion (2020) WEB-DL [H.264 / 1080p-LQ] [UKR, FRA]
  • Агент Картер / Agent Carter (2015) WEB-DL [H.264 / 720p-LQ] (Сезон 1, серии 1-8 из 8) (Невафильм) скачать через торрент бесплатно
  • Агент Икс / Agent X (2015) WEB-DL [H.264 / 720p-LQ] (сезон 1, серия 1 из 10) (BaibaKo) (обновляемая) скачать через торрент бесплатно
  • Агент Картер / Agent Carter (2016) WEB-DL [H.264 / 720p-LQ] (сезон 2, серия 1 из 10) (LostFilm) (обновляемая)
  • Агент Картер / Agent Carter (2016) WEB-DL [H.264 / 1080p-LQ] (сезон 2, серии 1-10 из 10) LostFilm
  • Секретный агент / The Secret Agent (2016) WEB-DL [H.264 / 1080p-LQ] (сезон 1, серии 1 из 6) BaibaKo (обновляемая)
  • Секретный агент / Unlocked (2017) WEB-DL [H.264 / 1080p-LQ]
  • Секретный агент / Unlocked (2017) WEB-DL [720p] ATV


  • Информация
    Посетители, находящиеся в группе Гости, не могут оставлять комментарии в данной новости.
    Главная страница | Регистрация | Добавить новость | Новое на сайте Copyright © 2019. bolt.mmix.club All Rights Reserved