Подписывайся на наш канал в Telegram https://t.me/torrentok и получи доступ к торрентам без ограничений!
. bolt.mmix.club
Авторские права
con...@...Показать
Вход на сайт
Логин:
Пароль:
 
Навигация по сайту
Популярные статьи

Торрент трекер | Скачать торрент | Скачать через Торрент | Скачать торрент бесплатно | Скачать торрент без регистрации Фильмы торрент скачать Опустошение / Swing Low / Ravage (2019) WEB-DL [H.264 / 1080p-LQ] [MVO] [AD] торрент скачать бесплатно

Опустошение / Swing Low / Ravage (2019) WEB-DL [H.264 / 1080p-LQ] [MVO] [AD] торрент скачать бесплатно

Фильмы торрент скачать
Опустошение / Swing Low / Ravage (2019) WEB-DL [H.264 / 1080p-LQ] [MVO] [AD]Производство: США/Cold Beer Friday, Galvanized Films
Жанр: Триллер
Режиссер: Тедди Греннан

Актеры
Аннабелль Декстер-Джонс, Брюс Дерн, Эрик Нелсен, Роберт Лонгстрит, Джошуа Брэйди, Росс Патридж, Кристофер Пинкалла, Дрэйк Шеннон, Майкл Уивер

Описание

Фотограф-натуралист объясняет полиции, как ей удалось выбраться из долины Уотчатуоми, они отвергают ее безумную и жестокую историю как кошмар, вызванный метамфетамином. Но когда они обнаруживают, что она говорит правду, уже слишком поздно.


Дата мировой премьеры: 30 августа 2019
Продолжительность: 01: 17: 00
Качество видео: WEB-DL
Перевод: Многоголосый любительский (@MUZOBOZ@)
Субтитры: Отсутствуют
Реклама: Банер, аудио и видео
Видео: AVC/H.264, 1916х798, ~7168 Kbps
Аудио: AAC, 2 ch, 384 Kbps, русский (MVO)
Общее
Уникальный идентификатор : 224011681103982515731326046943531493604 (0xA88714989281C08C91994DA0BDB7E8E4)
Полное имя : E: DownloadsRavage.2020.P.WEB_DL.1O8Op.mkv
Формат : Matroska
Версия формата : Version 2
Размер файла : 4, 50 Гбайт
Продолжительность : 1 ч. 25 м.
Режим общего битрейта : Переменный
Общий поток : 7 552 Кбит/сек
Дата кодирования : UTC 2020-08-21 15: 21: 00
Программа кодирования : mkvmerge v8.3.0 (\'Over the Horizon\') 64bit
Библиотека кодирования : libebml v1.3.1 + libmatroska v1.4.2
Видео
Идентификатор : 1
Формат : AVC
Формат/Информация : Advanced Video Codec
Профиль формата : High@L4.1
Настройки формата : CABAC/4 Ref Frames
Параметр CABAC формата : Да
Параметр RefFrames формата : 4 кадра
Идентификатор кодека : V_MPEG4/ISO/AVC
Продолжительность : 1 ч. 25 м.
Вид битрейта : Переменный
Битрейт : 7 168 Кбит/сек
Номинальный битрейт : 8 000 Кбит/сек
Максимальный битрейт : 8 000 Кбит/сек
Ширина : 1 916 пикселей
Высота : 798 пикселей
Соотношение сторон : 2, 40: 1
Режим частоты кадров : Постоянный
Частота кадров : 23, 976 (24000/1001) кадра/сек
Стандарт вещания : Component
Цветовое пространство : YUV
Субдискретизация насыщенности : 4: 2: 0
Битовая глубина : 8 бит
Тип развёртки : Прогрессивная
Бит/(Пиксели*Кадры) : 0.196
Размер потока : 4, 27 Гбайт (95%)
Библиотека кодирования : x264 core 155
Настройки программы : cabac=1/ref=4/deblock=1: 0: 0/analyse=0x3: 0x3/me=dia/subme=1/psy=1/psy_rd=1.00: 0.00/mixed_ref=0/me_range=16/chroma_me=1/trellis=0/8x8dct=1/cqm=1/deadzone=21, 11/fast_pskip=1/chroma_qp_offset=0/threads=24/lookahead_threads=4/sliced_threads=0/slices=1/nr=0/decimate=1/interlaced=0/minigop=0/stitchable=1/constrained_intra=0/bframes=2/b_pyramid=0/b_adapt=0/b_bias=0/direct=1/weightb=1/open_gop=1/weightp=0/keyint=240/keyint_min=23/scenecut=40/intra_refresh=0/rc_lookahead=0/rc=cbr/mbtree=0/bitrate=8000/ratetol=1.0/qcomp=0.60/qpmin=1/qpmax=69/qpstep=4/vbv_maxrate=8000/vbv_bufsize=8000/nal_hrd=vbr/filler=0/ip_ratio=1.40/pb_ratio=1.30/aq=1: 1.00
Default : Да
Forced : Нет
Цветовой диапазон : Limited
Основные цвета : BT.709
Характеристики трансфера : BT.709
Коэффициенты матрицы : BT.709
Аудио
Идентификатор : 2
Формат : AAC Main
Формат/Информация : Advanced Audio Codec
Идентификатор кодека : A_AAC-1
Продолжительность : 1 ч. 25 м.
Битрейт : 384 Кбит/сек
Каналы : 2 канала
Channel layout : L R
Частота : 48, 0 КГц
Частота кадров : 46, 875 кадров/сек (1024 SPF)
Метод сжатия : С потерями
Размер потока : 233 Мбайт (5%)
Default : Да
Forced : Нет

Скриншоты для ознакомления



Все одноименные релизы в Клубе
Время раздачи: 24/7 (до появления первых 3-5 скачавших)
 
Уважаемый посетитель, Вы зашли на сайт как незарегистрированный пользователь. Мы рекомендуем Вам зарегистрироваться либо зайти на сайт под своим именем.

Другие новости по теме:



Информация
Посетители, находящиеся в группе Гости, не могут оставлять комментарии в данной новости.
Главная страница | Регистрация | Добавить новость | Новое на сайте Copyright © 2019. bolt.mmix.club All Rights Reserved