Подписывайся на наш канал в Telegram https://t.me/torrentok и получи доступ к торрентам без ограничений!
. bolt.mmix.club
Авторские права
con...@...Показать
Вход на сайт
Логин:
Пароль:
 
Навигация по сайту
Популярные статьи

Торрент трекер | Скачать торрент | Скачать через Торрент | Скачать торрент бесплатно | Скачать торрент без регистрации Фильмы торрент скачать Морские паразиты / Sea Fever (2019) BDRip [H.264 / 720p] торрент скачать бесплатно

Морские паразиты / Sea Fever (2019) BDRip [H.264 / 720p] торрент скачать бесплатно

Фильмы торрент скачать
Морские паразиты / Sea Fever (2019) BDRip [H.264 / 720p]Производство: Ирландия, США, Великобритания, Швеция, Бельгия, Bright Moving Pictures, Creativity Capital, Fantastic Films, Flexibon Films, Makar Productions
Жанр: Ужасы, фантастика
Режиссер: Ниса Хардиман
Продюсер: Брендан Маккарти, Джон МакДоннел, Шакед Беренсон

Актеры
Гермиона Корфилд, Даг Малмберг, Джек Хикки, Олуэн Фуэре, Дюгрей Скотт, Конни Нильсен, Ардалан Эсмаили, Эли Буаказе

Описание
Ирландия. Студентка Шеворн - настоящий интроверт. Девушка изучает морскую биологию, и ей интереснее смотреть в микроскоп, чем общаться с сокурсниками. Она отправляется проходить практику на небольшом рыболовецком судне, что сулит новые впечатления и богатый материал для научных исследований, хотя команда и не в восторге от пассажирки, так как её рыжие волосы являются плохой приметой. Но тем не менее, капитан решает рискнуть и заплывает в запретную зону, где корабль внезапно застревает. Выясняется, что к бортам судна присосались неизвестные науке морские существа, и они явно способны менять структуру и растворять всё, чего касаются.


Возраст: 18+ (зрителям, достигшим 18 лет. запрещено для детей)
Дата мировой премьеры: 5 сентября 2019
Дата российской премьеры: 1 августа 2020, Кинологистика
Релиз от: NNMClub
Продолжительность: 01: 34: 13
Качество видео: BDRip 720p
Перевод: Дублированный, Авторский
Субтитры: Русские (Full, SDH), Английские (Full, SDH)
Видео: AVC/H.264, 1280x536, 3500 Kbps, 23.976 fps
Аудио 1 : AC-3, 6 ch, 384 Kbps | Русский Dub iTunes
Аудио 2 : AC-3, 6 ch, 448 Kbps | Русский AVO C.Визгунов
Аудио 3 : AC-3, 6 ch, 640 Kbps | Английский
General
Unique ID : 75297012074262765760074328809815326760 (0x38A5AD51AF79654244B2EB5EAC9EC028)
Complete name : /Users/imac/HandBrake/Sea.Fever.BDRip.720p.pk.mkv
Format : Matroska
Format version : Version 4
File size : 3.27 GiB
Duration : 1 h 34 min
Overall bit rate : 4 975 kb/s
Movie name : Sea Fever BDRip 720p pk
Encoded date : UTC 2020-08-22 11: 44: 10
Writing application : mkvmerge v49.0.0 (\'Sick Of Losing Soulmates\') 64-bit
Writing library : libebml v1.4.0 + libmatroska v1.6.1
Video
ID : 1
Format : AVC
Format/Info : Advanced Video Codec
Format profile : High@L4.1
Format settings : CABAC/12 Ref Frames
Format settings, CABAC : Yes
Format settings, Reference frames : 12 frames
Codec ID : V_MPEG4/ISO/AVC
Duration : 1 h 34 min
Bit rate : 3 500 kb/s
Width : 1 280 pixels
Height : 536 pixels
Display aspect ratio : 2.40: 1
Frame rate mode : Constant
Frame rate : 23.976 (24000/1001) FPS
Color space : YUV
Chroma subsampling : 4: 2: 0
Bit depth : 8 bits
Scan type : Progressive
Bits/(Pixel*Frame) : 0.213
Stream size : 2.30 GiB (70%)
Writing library : x264 core 157 r2935 545de2f
Encoding settings : cabac=1/ref=12/deblock=1: -3: -2/analyse=0x3: 0x133/me=umh/subme=9/psy=1/psy_rd=1.00: 0.00/mixed_ref=1/me_range=32/chroma_me=1/trellis=2/8x8dct=1/cqm=0/deadzone=6, 6/fast_pskip=1/chroma_qp_offset=-2/threads=17/lookahead_threads=4/sliced_threads=0/nr=0/decimate=0/interlaced=0/bluray_compat=0/constrained_intra=0/bframes=16/b_pyramid=2/b_adapt=2/b_bias=0/direct=3/weightb=1/open_gop=0/weightp=2/keyint=240/keyint_min=24/scenecut=40/intra_refresh=0/rc_lookahead=40/rc=2pass/mbtree=1/bitrate=3500/ratetol=1.0/qcomp=0.80/qpmin=0/qpmax=69/qpstep=4/cplxblur=20.0/qblur=0.5/vbv_maxrate=50000/vbv_bufsize=62000/nal_hrd=none/filler=0/ip_ratio=1.10/aq=1: 0.50
Language : English
Default : Yes
Forced : No
Color range : Limited
Color primaries : BT.709
Transfer characteristics : BT.709
Matrix coefficients : BT.709
Audio #1
ID : 2
Format : AC-3
Format/Info : Audio Coding 3
Commercial name : Dolby Digital
Codec ID : A_AC3
Duration : 1 h 34 min
Bit rate mode : Constant
Bit rate : 384 kb/s
Channel(s) : 6 channels
Channel layout : L R C LFE Ls Rs
Sampling rate : 48.0 kHz
Frame rate : 31.250 FPS (1536 SPF)
Compression mode : Lossy
Stream size : 259 MiB (8%)
Title : Russian Dub iTunes
Language : Russian
Service kind : Complete Main
Default : Yes
Forced : No
Audio #2
ID : 3
Format : AC-3
Format/Info : Audio Coding 3
Commercial name : Dolby Digital
Codec ID : A_AC3
Duration : 1 h 34 min
Bit rate mode : Constant
Bit rate : 448 kb/s
Channel(s) : 6 channels
Channel layout : L R C LFE Ls Rs
Sampling rate : 48.0 kHz
Frame rate : 31.250 FPS (1536 SPF)
Compression mode : Lossy
Stream size : 302 MiB (9%)
Title : Russian AVO Vizgunov
Language : Russian
Service kind : Complete Main
Default : No
Forced : No
Audio #3
ID : 4
Format : AC-3
Format/Info : Audio Coding 3
Commercial name : Dolby Digital
Codec ID : A_AC3
Duration : 1 h 34 min
Bit rate mode : Constant
Bit rate : 640 kb/s
Channel(s) : 6 channels
Channel layout : L R C LFE Ls Rs
Sampling rate : 48.0 kHz
Frame rate : 31.250 FPS (1536 SPF)
Compression mode : Lossy
Stream size : 431 MiB (13%)
Title : English Original
Language : English
Service kind : Complete Main
Default : No
Forced : No
Text #1
ID : 5
Format : UTF-8
Codec ID : S_TEXT/UTF8
Codec ID/Info : UTF-8 Plain Text
Duration : 1 h 26 min
Bit rate : 68 b/s
Count of elements : 879
Stream size : 43.9 KiB (0%)
Title : Russian Full (Khotya-303)
Language : Russian
Default : No
Forced : No
Text #2
ID : 6
Format : UTF-8
Codec ID : S_TEXT/UTF8
Codec ID/Info : UTF-8 Plain Text
Duration : 1 h 28 min
Bit rate : 79 b/s
Count of elements : 1133
Stream size : 51.5 KiB (0%)
Title : Russian SDH
Language : Russian
Default : No
Forced : No
Text #3
ID : 7
Format : UTF-8
Codec ID : S_TEXT/UTF8
Codec ID/Info : UTF-8 Plain Text
Duration : 1 h 34 min
Bit rate : 37 b/s
Count of elements : 929
Stream size : 25.7 KiB (0%)
Title : English full
Language : English
Default : No
Forced : No
Text #4
ID : 8
Format : UTF-8
Codec ID : S_TEXT/UTF8
Codec ID/Info : UTF-8 Plain Text
Duration : 1 h 34 min
Bit rate : 44 b/s
Count of elements : 1331
Stream size : 30.5 KiB (0%)
Title : English SDH
Language : English
Default : No
Forced : No
Menu
00: 00: 00.000 : : Chapter 1
00: 13: 49.620 : : Chapter 2
00: 33: 08.320 : : Chapter 3
00: 52: 35.110 : : Chapter 4
01: 11: 14.729 : : Chapter 5
01: 26: 41.571 : : Chapter 6

x264 info: frame I: 902 Avg QP: 12.72 size: 67640
x264 info: frame P: 28848 Avg QP: 14.07 size: 34299
x264 info: frame B: 105802 Avg QP: 15.22 size: 13453
x264 info: consecutive B-frames: 2.5% 2.7% 7.8% 14.3% 15.5% 44.5% 5.3% 0.7% 1.8% 0.8% 0.8% 0.3% 0.4% 0.4% 0.3% 0.2% 1.5%
x264 info: mb I I16..4: 12.2% 69.4% 18.4%
x264 info: mb P I16..4: 2.5% 10.8% 1.7% P16..4: 34.5% 21.6% 13.9% 0.7% 0.2% skip: 14.0%
x264 info: mb B I16..4: 0.2% 1.1% 0.2% B16..8: 35.1% 14.1% 4.0% direct: 6.8% skip: 38.5% L0: 44.8% L1: 43.0% BI: 12.2%
x264 info: 8x8 transform intra: 71.7% inter: 50.1%
x264 info: direct mvs spatial: 97.9% temporal: 2.1%
x264 info: coded y, uvDC, uvAC intra: 73.1% 72.6% 56.6% inter: 25.6% 24.4% 9.8%
x264 info: i16 v, h, dc, p: 51% 17% 10% 22%
x264 info: i8 v, h, dc, ddl, ddr, vr, hd, vl, hu: 13% 10% 13% 8% 12% 11% 11% 10% 12%
x264 info: i4 v, h, dc, ddl, ddr, vr, hd, vl, hu: 12% 10% 7% 10% 14% 12% 12% 10% 13%
x264 info: i8c dc, h, v, p: 48% 24% 17% 11%
x264 info: Weighted P-Frames: Y: 6.3% UV: 1.8%
x264 info: ref P L0: 47.3% 6.8% 16.2% 7.3% 5.5% 4.3% 3.6% 2.2% 1.9% 1.7% 1.5% 1.5% 0.1% 0.0%
x264 info: ref B L0: 71.3% 12.1% 6.1% 3.0% 2.2% 1.7% 1.4% 0.9% 0.7% 0.5% 0.2%
x264 info: ref B L1: 93.5% 6.5%
x264 info: kb/s: 3500.55

Скриншоты для ознакомления



Все одноименные релизы в Клубе
Время раздачи: 24/7 (круглосуточно) (до появления первых 3-5 скачавших)
 
Уважаемый посетитель, Вы зашли на сайт как незарегистрированный пользователь. Мы рекомендуем Вам зарегистрироваться либо зайти на сайт под своим именем.

Другие новости по теме:

  • Морские паразиты / Sea Fever (2019) BDRip [720p] ATV
  • Морские паразиты / Sea Fever (2019) WEB-DLRip [H.264 / 1080p-LQ] [MVO, AD]
  • Морские паразиты / Sea Fever (2019) BDRip [H.264 / 1080p] [DVO] [PR]
  • Морские паразиты / Sea Fever (2019) BDRemux [H.264 / 1080p]
  • Морские паразиты / Sea Fever (2019) BDRip [H.264 / 720p] [PR]
  • Морские паразиты / Sea Fever (2019) BDRip [H.264 / 1080p] [PR]
  • Морские паразиты / Sea Fever (2019) BDRip [H.264 / 1080p]
  • Морские паразиты / Sea Fever (2019) BDRip [1080p] ATV3


  • Информация
    Посетители, находящиеся в группе Гости, не могут оставлять комментарии в данной новости.
    Главная страница | Регистрация | Добавить новость | Новое на сайте Copyright © 2019. bolt.mmix.club All Rights Reserved