Подписывайся на наш канал в Telegram https://t.me/torrentok и получи доступ к торрентам без ограничений!
. bolt.mmix.club
Авторские права
con...@...Показать
Вход на сайт
Логин:
Пароль:
 
Навигация по сайту
Популярные статьи

Торрент трекер | Скачать торрент | Скачать через Торрент | Скачать торрент бесплатно | Скачать торрент без регистрации Фильмы торрент скачать Биохакеры / Biohackers (2020) WEBRip [H.264 / 1080p-LQ](сезон 1, серии 1 из 6) ViruseProject (обновляемая) [AD] торрент скачать бесплатно

Биохакеры / Biohackers (2020) WEBRip [H.264 / 1080p-LQ](сезон 1, серии 1 из 6) ViruseProject (обновляемая) [AD] торрент скачать бесплатно

Фильмы торрент скачать
Биохакеры / Biohackers (2020) WEBRip [H.264 / 1080p-LQ](сезон 1, серии 1 из 6) ViruseProject (обновляемая) [AD]Производство: Германия
Жанр: фантастика, триллер, драма
Режиссер: Кристиан Диттер

Актеры
Луна Ведлер, Каро Культ, Элеанор Дэниэл, Бенно Фюрман и др.

Описание

Одаренная студентка биофака Мия знакомится с преподавательницей Лоренц и её подопечными. Они проводят странноватые и, вероятно, не вполне законные эксперименты – заставляют мышь излучать зеленый свет в темноте, а растения у них превращаются в музыкальные инструменты. Мия интересует лабораторией не просто так – девушка подозревает, что Лоренц причастна к гибели её родственника.


Дата мировой премьеры: 20 августа 2020
Релиз от: ViruseProject
Продолжительность: ~00: 40: 00 серия
Качество видео: WEBRip 1080p
Перевод: Двуголосый профессиональный (ViruseProject)
Субтитры: рРусские
Реклама: присутствуют видео, аудио вставки рекламы
Видео: AVC/H.264, 1920x1080 (16: 9), ~3000 Kbps
Аудио 1: AC3, 2 ch, 192 Kbps - русский
Аудио 2: AAC, 2 ch, 192 Kbps - немецкий
Общее
Уникальный идентификатор : 217279917610109845428294653363144866456 (0xA3769707E04A0C059F05F303806FBA98)
Полное имя : F: ОЗВУЧКА888-ЗАЛИВ-888Biohackers.S01.ViruseProjectBiohackers.S01.1080p.ViruseProjectBiohackers.S01E01.1080p.WEBRip.ViruseProject.mkv
Формат : Matroska
Версия формата : Version 4
Размер файла : 1, 03 Гбайт
Продолжительность : 44 м. 18 с.
Общий поток : 3 337 Кбит/сек
Дата кодирования : UTC 2020-08-21 16: 07: 36
Программа кодирования : mkvmerge v8.3.0 (\'Over the Horizon\') 64bit
Библиотека кодирования : libebml v1.3.1 + libmatroska v1.4.2
Видео
Идентификатор : 1
Формат : AVC
Формат/Информация : Advanced Video Codec
Профиль формата : High@L4.2
Настройки формата : CABAC/4 Ref Frames
Параметр CABAC формата : Да
Параметр RefFrames формата : 4 кадра
Идентификатор кодека : V_MPEG4/ISO/AVC
Продолжительность : 44 м. 18 с.
Битрейт : 2 953 Кбит/сек
Ширина : 1 920 пикселей
Высота : 1 080 пикселей
Соотношение сторон : 16: 9
Режим частоты кадров : Постоянный
Частота кадров : 24, 000 кадра/сек
Цветовое пространство : YUV
Субдискретизация насыщенности : 4: 2: 0
Битовая глубина : 8 бит
Тип развёртки : Прогрессивная
Бит/(Пиксели*Кадры) : 0.059
Размер потока : 936 Мбайт (88%)
Язык : English
Default : Да
Forced : Нет
Цветовой диапазон : Limited
Основные цвета : BT.709
Характеристики трансфера : BT.709
Коэффициенты матрицы : BT.709
Аудио #1
Идентификатор : 2
Формат : AC-3
Формат/Информация : Audio Coding 3
Коммерческое название : Dolby Digital
Идентификатор кодека : A_AC3
Продолжительность : 44 м. 18 с.
Вид битрейта : Постоянный
Битрейт : 192 Кбит/сек
Каналы : 2 канала
Channel layout : L R
Частота : 48, 0 КГц
Частота кадров : 31, 250 кадров/сек (1536 SPF)
Метод сжатия : С потерями
Размер потока : 60, 8 Мбайт (6%)
Заголовок : ViruseProject
Язык : Russian
Service kind : Complete Main
Default : Да
Forced : Нет
Аудио #2
Идентификатор : 3
Формат : AAC LC
Формат/Информация : Advanced Audio Codec Low Complexity
Идентификатор кодека : A_AAC-2
Продолжительность : 44 м. 18 с.
Битрейт : 192 Кбит/сек
Каналы : 2 канала
Channel layout : L R
Частота : 48, 0 КГц
Частота кадров : 46, 875 кадров/сек (1024 SPF)
Метод сжатия : С потерями
Размер потока : 60, 0 Мбайт (6%)
Язык : German
Default : Нет
Forced : Нет
Текст
Идентификатор : 4
Формат : UTF-8
Идентификатор кодека : S_TEXT/UTF8
Идентификатор кодека/Информация : UTF-8 Plain Text
Продолжительность : 36 м. 9 с.
Битрейт : 71 бит/сек
Count of elements : 416
Размер потока : 19, 0 Кбайт (0%)
Язык : Russian
Default : Нет
Forced : Нет

Скриншоты для ознакомления



Все одноименные релизы в Клубе
Время раздачи: с 10: 00 до 24: 00 (до появления первых 3-5 скачавших)
 
Уважаемый посетитель, Вы зашли на сайт как незарегистрированный пользователь. Мы рекомендуем Вам зарегистрироваться либо зайти на сайт под своим именем.

Другие новости по теме:

  • Биохакеры / Biohackers (2020) WEBRip (сезон 1, серии 1 из 6) ViruseProject (обновляемая) [AD]


  • Информация
    Посетители, находящиеся в группе Гости, не могут оставлять комментарии в данной новости.
    Главная страница | Регистрация | Добавить новость | Новое на сайте Copyright © 2019. bolt.mmix.club All Rights Reserved