Подписывайся на наш канал в Telegram https://t.me/torrentok и получи доступ к торрентам без ограничений!
. bolt.mmix.club
Авторские права
con...@...Показать
Вход на сайт
Логин:
Пароль:
 
Навигация по сайту
Популярные статьи

Торрент трекер | Скачать торрент | Скачать через Торрент | Скачать торрент бесплатно | Скачать торрент без регистрации Фильмы торрент скачать Любовь — проблема для отаку (Так сложно любить отаку) / Wotaku ni koi wa muzukashii / Wotakoi: Love is Hard for Otaku (2020) WEBRip [DVO] торрент скачать бесплатно

Любовь — проблема для отаку (Так сложно любить отаку) / Wotaku ni koi wa muzukashii / Wotakoi: Love is Hard for Otaku (2020) WEBRip [DVO] торрент скачать бесплатно

Фильмы торрент скачать
Любовь — проблема для отаку (Так сложно любить отаку) / Wotaku ni koi wa muzukashii / Wotakoi: Love is Hard for Otaku (2020) WEBRip [DVO]Производство: Япония, Credeus, Fuji Television Network, Horipro
Жанр: Мелодрама, комедия
Режиссер: Юити Фукуда
Продюсер: Хироки Вакамацу

Актеры
Мицуки Такахата, Кэнто Ямадзаки, Маая Утида, Такуми Сайто, Нанао, Кэнто Каку, Мио Имада, Цуёси Муро, Юми Вакацуки, Дзиро Сато

Описание

26-летняя Наруми Момосэ устраивается в компанию, где работает её бывший одноклассник Хиротака Нифудзи. Хиротака - симпатичный парень и хороший работник, но он отаку. Сама же Наруми втайне от окружающих фанатеет от яоя. Хиротака и Наруми решают встречаться, но оказывается, что двоим ничего не смыслящим в отношениях отаку совсем непросто быть вместе.


Релиз от: Rip by vitolinform
Продолжительность: 01: 53: 44
Качество видео: WEBRip
Перевод: Двуголосый любительский (АрхиAsia)
Субтитры: Английские, итальянские, португальские - отдельными файлами
Видео: Xvid, 720x384, ~1446 kbps
Аудио 1: AC3, 2 ch, 192 Кbps | Русский (DVO, АрхиAsia)
Аудио 2: AC3, 2 ch, 192 Кbps | Японский
Общее
Полное имя : C: Lyubov.problema.dlya.otaku.2020.WEBRipLyubov.problema.dlya.otaku.2020.WEBRip.avi
Формат : AVI
Формат/Информация : Audio Video Interleave
Размер файла : 1, 47 Гбайт
Продолжительность : 1 ч. 53 м.
Общий поток : 1 844 Кбит/сек
Название фильма : Любовь — проблема для отаку/Так сложно любить отаку/Wotaku ni koi wa muzukashii/Wotakoi: Love is Hard for Otaku (2020) WEBRip
Режиссёр : Юити Фукуда/Yuichi Fukuda
Жанр : Мелодрама, комедия
Программа кодирования : VirtualDubMod 1.5.10.2 (build 2542/release)
Формат оригинала/Имя : Художественный фильм
Авторское право : Япония, Credeus, Fuji Television Network, Horipro
Примечание : Rip by vitolinform
Видео
Идентификатор : 0
Формат : MPEG-4 Visual
Профиль формата : Advanced Simple@L5
Настройки формата : BVOP1
Параметр BVOP формата : 1
Параметр QPel формата : Нет
Параметр GMC формата : Без точки перехода
Параметр матрицы формата : Default (MPEG)
Идентификатор кодека : XVID
Идентификатор кодека/Подсказка : XviD
Продолжительность : 1 ч. 53 м.
Битрейт : 1 446 Кбит/сек
Ширина : 720 пикселей
Высота : 384 пикселя
Соотношение сторон : 1, 85: 1
Частота кадров : 23, 976 (24000/1001) кадра/сек
Частота кадров в оригинале : 23, 976 (23976/1000) кадра/сек
Цветовое пространство : YUV
Субдискретизация насыщенности : 4: 2: 0
Битовая глубина : 8 бит
Тип развёртки : Прогрессивная
Метод сжатия : С потерями
Бит/(Пиксели*Кадры) : 0.218
Размер потока : 1, 15 Гбайт (78%)
Библиотека кодирования : XviD 69
Аудио #1
Идентификатор : 1
Формат : AC-3
Формат/Информация : Audio Coding 3
Коммерческое название : Dolby Digital
Идентификатор кодека : 2000
Продолжительность : 1 ч. 53 м.
Вид битрейта : Постоянный
Битрейт : 192 Кбит/сек
Каналы : 2 канала
Channel layout : L R
Частота : 48, 0 КГц
Частота кадров : 31, 250 кадров/сек (1536 SPF)
Метод сжатия : С потерями
Размер потока : 156 Мбайт (10%)
Выравнивание : Разделение по промежуткам
Продолжительность промежутка : 42 мс. (1, 00 видеокадр)
Время предзагрузки промежутка : 500 мс.
Заголовок : Russian (DVO АрхиАзия)
Service kind : Complete Main
Аудио #2
Идентификатор : 2
Формат : AC-3
Формат/Информация : Audio Coding 3
Коммерческое название : Dolby Digital
Идентификатор кодека : 2000
Продолжительность : 1 ч. 53 м.
Вид битрейта : Постоянный
Битрейт : 192 Кбит/сек
Каналы : 2 канала
Channel layout : L R
Частота : 48, 0 КГц
Частота кадров : 31, 250 кадров/сек (1536 SPF)
Метод сжатия : С потерями
Размер потока : 156 Мбайт (10%)
Выравнивание : Разделение по промежуткам
Продолжительность промежутка : 42 мс. (1, 00 видеокадр)
Время предзагрузки промежутка : 500 мс.
Заголовок : Korean
Service kind : Complete Main
 
Уважаемый посетитель, Вы зашли на сайт как незарегистрированный пользователь. Мы рекомендуем Вам зарегистрироваться либо зайти на сайт под своим именем.

Другие новости по теме:

  • Otaku ni Koi wa Muzukashii | Wotakoi: Love is Hard for Otaku | Любовь - проблема для отаку [2018, TV, 4 из 11] HDTVRip 720p raw
  • Otaku ni Koi wa Muzukashii | Wotakoi: Love is Hard for Otaku | Любовь - проблема для отаку [2018, TV, 11 эп. + OVA] BDRip 1080 HEVC 10bit raw


  • Информация
    Посетители, находящиеся в группе Гости, не могут оставлять комментарии в данной новости.
    Главная страница | Регистрация | Добавить новость | Новое на сайте Copyright © 2019. bolt.mmix.club All Rights Reserved