Подписывайся на наш канал в Telegram https://t.me/torrentok и получи доступ к торрентам без ограничений!
. bolt.mmix.club
Авторские права
con...@...Показать
Вход на сайт
Логин:
Пароль:
 
Навигация по сайту
Популярные статьи

Торрент трекер | Скачать торрент | Скачать через Торрент | Скачать торрент бесплатно | Скачать торрент без регистрации Фильмы торрент скачать Сайонара / Sayonara (1957) BDRip [H.264] торрент скачать бесплатно

Сайонара / Sayonara (1957) BDRip [H.264] торрент скачать бесплатно

Фильмы торрент скачать
Сайонара / Sayonara (1957) BDRip [H.264]Производство: США/Pennebaker Productions, William Goetz Productions
Жанр: Драма, Мелодрама
Режиссер: Джошуа Логан
Продюсер: Уильям Гетц

Актеры
Марлон Брандо, Патриция Оуэнс, Джеймс Гарнер, Марта Скотт, Миико Така, Миёси Умэки, Ред Баттонс, Кент Смит, Дугласс Уотсон, Рэйко Куба

Описание

Майор Ллойд Грувер служит на японской военно-воздушной базе в разгар войны в Корее. Грувер видит проявления расизма со стороны американских военных по отношению к японцам: военнослужащим запрещают жениться на японках.
Будучи первое время равнодушен к такой ситуации, Грувер вынужден изменить свою позицию, когда его друг Джо Келли влюбляется в местную женщину и собирается сочетаться с ней законным браком. Келли через голову командования обращается с прошением в Конгресс.
Поддерживая своего товарища, Грувер сам влюбляется в прекрасную японскую танцовщицу Хана-оги и оказывается в таком же положении, что и Келли.


Возраст: 16+ (зрителям, достигшим 16 лет)
Релиз от: Охрана (NNMCLUB)
Продолжительность: 02: 27: 28
Качество видео: BDRip
Перевод: Многоголосый профессиональный, двуголосый профессиональный
Субтитры: Русские, английские
Видео: AVC/H.264, 1024x432, ~2750 Kbps
Аудио 1: AC3, 2 ch, 256 Kbps, 48.0 kHz – Русский DVO, НТВ+
Аудио 2: AC3, 2 ch, 192 Kbps, 48.0 kHz – Русский MVO, SomeWax
Аудио 3: AC3, 2 ch, 192 Kbps, 48.0 kHz – Английский
Общее
Уникальный идентификатор : 191148729070752659048158635584411839908 (0x8FCDE7F72545E9BAAD2B05BD523AADA4)
Полное имя : D: DownloadsСайонара. 1957. NNMCLUB.mkv
Формат : Matroska
Версия формата : Version 4/Version 2
Размер файла : 3, 50 Гбайт
Продолжительность : 2 ч. 27 м.
Общий поток : 3393 Кбит/сек
Дата кодирования : UTC 2020-08-20 09: 58: 41
Программа кодирования : mkvmerge v7.9.0 (\'Birds\') 64bit
Библиотека кодирования : libebml v1.3.1 + libmatroska v1.4.2
Видео
Идентификатор : 1
Формат : AVC
Формат/Информация : Advanced Video Codec
Профиль формата : High@L4.1
Настройки формата : CABAC/12 Ref Frames
Параметр CABAC формата : Да
Параметр RefFrames формата : 12 кадров
Идентификатор кодека : V_MPEG4/ISO/AVC
Продолжительность : 2 ч. 27 м.
Битрейт : 2750 Кбит/сек
Ширина : 1024 пикселя
Высота : 432 пикселя
Соотношение сторон : 2, 40: 1
Режим частоты кадров : Постоянный
Частота кадров : 23, 976 (24000/1001) кадра/сек
Цветовое пространство : YUV
Субдискретизация насыщенности : 4: 2: 0
Битовая глубина : 8 бит
Тип развёртки : Прогрессивная
Бит/(Пиксели*Кадры) : 0.259
Размер потока : 2, 83 Гбайт (81%)
Заголовок : Sayonara
Библиотека кодирования : x264 core 146 r2538 121396c
Настройки программы : cabac=1/ref=12/deblock=1: -1: -1/analyse=0x3: 0x113/me=umh/subme=10/psy=1/psy_rd=1.00: 0.10/mixed_ref=1/me_range=32/chroma_me=1/trellis=2/8x8dct=1/cqm=0/deadzone=21, 11/fast_pskip=0/chroma_qp_offset=-3/threads=6/lookahead_threads=1/sliced_threads=0/nr=0/decimate=0/interlaced=0/bluray_compat=0/constrained_intra=0/bframes=9/b_pyramid=2/b_adapt=2/b_bias=0/direct=3/weightb=1/open_gop=0/weightp=2/keyint=250/keyint_min=25/scenecut=40/intra_refresh=0/rc_lookahead=60/rc=2pass/mbtree=1/bitrate=2750/ratetol=1.0/qcomp=0.60/qpmin=0/qpmax=69/qpstep=4/cplxblur=20.0/qblur=0.5/vbv_maxrate=14000/vbv_bufsize=14000/nal_hrd=none/filler=0/ip_ratio=1.40/aq=1: 1.00
Язык : English
Default : Да
Forced : Нет
Аудио #1
Идентификатор : 2
Формат : AC-3
Формат/Информация : Audio Coding 3
Идентификатор кодека : A_AC3
Продолжительность : 2 ч. 27 м.
Вид битрейта : Постоянный
Битрейт : 256 Кбит/сек
Каналы : 2 канала
Расположение каналов : Front: L R
Частота : 48, 0 КГц
Частота кадров : 31, 250 кадров/сек (1536 SPF)
Битовая глубина : 16 бит
Метод сжатия : С потерями
Размер потока : 270 Мбайт (8%)
Заголовок : Двухголосый закадровый, НТВ+
Язык : Russian
ServiceKind/String : Complete Main
Default : Да
Forced : Нет
Аудио #2
Идентификатор : 3
Формат : AC-3
Формат/Информация : Audio Coding 3
Идентификатор кодека : A_AC3
Продолжительность : 2 ч. 27 м.
Вид битрейта : Постоянный
Битрейт : 192 Кбит/сек
Каналы : 2 канала
Расположение каналов : Front: L R
Частота : 48, 0 КГц
Частота кадров : 31, 250 кадров/сек (1536 SPF)
Битовая глубина : 16 бит
Метод сжатия : С потерями
Размер потока : 202 Мбайт (6%)
Заголовок : Многоголосый закадровый, SomeWax
Язык : Russian
ServiceKind/String : Complete Main
Default : Нет
Forced : Нет
Аудио #3
Идентификатор : 4
Формат : AC-3
Формат/Информация : Audio Coding 3
Идентификатор кодека : A_AC3
Продолжительность : 2 ч. 27 м.
Вид битрейта : Постоянный
Битрейт : 192 Кбит/сек
Каналы : 2 канала
Расположение каналов : Front: L R
Частота : 48, 0 КГц
Частота кадров : 31, 250 кадров/сек (1536 SPF)
Битовая глубина : 16 бит
Метод сжатия : С потерями
Размер потока : 203 Мбайт (6%)
Заголовок : Английский
Язык : English
ServiceKind/String : Complete Main
Default : Нет
Forced : Нет
Текст #1
Идентификатор : 5
Формат : UTF-8
Идентификатор кодека : S_TEXT/UTF8
Идентификатор кодека/Информация : UTF-8 Plain Text
Продолжительность : 2 ч. 23 м.
Битрейт : 73 бит/сек
ElementCount : 1411
Размер потока : 77, 2 Кбайт (0%)
Заголовок : Russian
Язык : Russian
Default : Нет
Forced : Нет
Текст #2
Идентификатор : 6
Формат : UTF-8
Идентификатор кодека : S_TEXT/UTF8
Идентификатор кодека/Информация : UTF-8 Plain Text
Продолжительность : 2 ч. 26 м.
Битрейт : 65 бит/сек
ElementCount : 2175
Размер потока : 70, 2 Кбайт (0%)
Заголовок : English SDH
Язык : English
Default : Нет
Forced : Нет

Скриншоты для ознакомления




Все одноименные релизы в Клубе
Время раздачи: с 13: 00 до 01: 00 МСК, выходные круглосуточно (до появления первых 3-5 скачавших)
 
Уважаемый посетитель, Вы зашли на сайт как незарегистрированный пользователь. Мы рекомендуем Вам зарегистрироваться либо зайти на сайт под своим именем.

Другие новости по теме:

  • Сайонара / Sayonara (1957) BDRemux [H.264 / 1080p]
  • Сайонара / Sayonara (1957) BDRip [H.264 / 720p]


  • Информация
    Посетители, находящиеся в группе Гости, не могут оставлять комментарии в данной новости.
    Главная страница | Регистрация | Добавить новость | Новое на сайте Copyright © 2019. bolt.mmix.club All Rights Reserved