Подписывайся на наш канал в Telegram https://t.me/torrentok и получи доступ к торрентам без ограничений!
. bolt.mmix.club
Авторские права
con...@...Показать
Вход на сайт
Логин:
Пароль:
 
Навигация по сайту
Популярные статьи

Торрент трекер | Скачать торрент | Скачать через Торрент | Скачать торрент бесплатно | Скачать торрент без регистрации Фильмы торрент скачать Сайти — сын Зоули (2019) WEBRip [VP9 / 1440p-LQ] торрент скачать бесплатно

Сайти — сын Зоули (2019) WEBRip [VP9 / 1440p-LQ] торрент скачать бесплатно

Фильмы торрент скачать
Сайти — сын Зоули (2019) WEBRip [VP9 / 1440p-LQ]Производство: Россия
Жанр: Короткометражный, драма
Режиссер: Амур Амерханов

Актеры
Алисхан Ганижев, Магомед Зурабов, Дугурхан Кодзоева, Алексей Вакулов, Дмитрий Файнштейн

Описание

В замкнутом пространстве горской хижины, где заперты непреодолимыми условиями три человека, и вокруг дома, где стоят в окружении солдаты Российской царской армии, персонажи принимают тяжелые решения, которые навсегда изменяют ход событий и жизнь каждого из участников этой истории.

Продолжительность: 00: 33: 19
Качество видео: WEBRip
Субтитры: Отсутствуют
Видео: VP9, 2560x1440 (16: 9), ~3310 Kbps
Аудио: AC3, 2 ch, 192 Kbps - русский
Общее
Уникальный идентификатор : 328031526572801382777124351049691691009 (0xF6C892EFE45A9F6ED83202C8D295F801)
Полное имя : G: Сайти сын Зоули (2019).mkv
Формат : Matroska
Версия формата : Version 4
Размер файла : 835 Мбайт
Продолжительность : 33 м. 19 с.
Общий поток : 3 501 Кбит/сек
Дата кодирования : UTC 2020-08-19 08: 38: 31
Программа кодирования : mkvmerge v26.0.0 (\'In The Game\') 32-bit
Библиотека кодирования : libebml v1.3.6 + libmatroska v1.4.9/Lavf58.29.100
Видео
Идентификатор : 1
Формат : VP9
Идентификатор кодека : V_VP9
Продолжительность : 33 м. 19 с.
Битрейт : 3 308 Кбит/сек
Ширина : 2 560 пикселей
Высота : 1 440 пикселей
Соотношение сторон : 16: 9
Режим частоты кадров : Постоянный
Частота кадров : 25, 000 кадров/сек
Бит/(Пиксели*Кадры) : 0.036
Размер потока : 789 Мбайт (94%)
Default : Да
Forced : Нет
Аудио
Идентификатор : 2
Формат : AC-3
Формат/Информация : Audio Coding 3
Коммерческое название : Dolby Digital
Идентификатор кодека : A_AC3
Продолжительность : 33 м. 19 с.
Вид битрейта : Постоянный
Битрейт : 192 Кбит/сек
Каналы : 2 канала
Channel layout : L R
Частота : 48, 0 КГц
Частота кадров : 31, 250 кадров/сек (1536 SPF)
Метод сжатия : С потерями
Размер потока : 45, 8 Мбайт (5%)
Service kind : Complete Main
Default : Да
Forced : Нет

Скриншоты для ознакомления



Все одноименные релизы в Клубе
Время раздачи: 24/7 (круглосуточно) (до появления первых 3-5 скачавших)
 
Уважаемый посетитель, Вы зашли на сайт как незарегистрированный пользователь. Мы рекомендуем Вам зарегистрироваться либо зайти на сайт под своим именем.

Другие новости по теме:



Информация
Посетители, находящиеся в группе Гости, не могут оставлять комментарии в данной новости.
Главная страница | Регистрация | Добавить новость | Новое на сайте Copyright © 2019. bolt.mmix.club All Rights Reserved