Подписывайся на наш канал в Telegram https://t.me/torrentok и получи доступ к торрентам без ограничений!
. bolt.mmix.club
Авторские права
con...@...Показать
Вход на сайт
Логин:
Пароль:
 
Навигация по сайту
Популярные статьи

Торрент трекер | Скачать торрент | Скачать через Торрент | Скачать торрент бесплатно | Скачать торрент без регистрации Фильмы торрент скачать Час истины / Hour of Lead (2020) WEB-DL [H.264 / 1080p-LQ] торрент скачать бесплатно

Час истины / Hour of Lead (2020) WEB-DL [H.264 / 1080p-LQ] торрент скачать бесплатно

Фильмы торрент скачать
Час истины / Hour of Lead (2020) WEB-DL [H.264 / 1080p-LQ]Производство: США, Adonais Productions, Benay\'s Birds Animals, Brickell Broadbridge International
Жанр: Боевик, триллер, детектив
Режиссер: Питер Фачинелли
Продюсер: Джефф Эллиотт, Брэндон Менчен, Билл Бромили,

Актеры
Энн Хеч, Томас Джейн, Джейсон Патрик, Алекс Хейдон, Питер Фачинелли, Алексей Арчер, Кристофер Венте, Джон Д. Хикман, Митчелл Л. Джонсон, Кейкей Хейм

Описание

У супружеской пары, остановившейся в кемпинге на берегу реки, бесследно пропадает дочь. Полиция не в силах отыскать девочку, но муж с женой не остановятся ни перед чем, чтобы найти своего ребенка. Однако никто не догадывается, что за этим исчезновением скрывается страшная правда.


Дата мировой премьеры: 28 февраля 2020, ...
Дата российской премьеры: 21 августа 2020, Вольга
Релиз от: ELEKTRI4KA
Продолжительность: 01: 54: 42
Качество видео: WEB-DL
Перевод: Дублированный (iTunes)
Субтитры: Русские (Full)
Видео: AVC/H.264, 1920x804, ~4554 kbps
Аудио: AC3, 6 ch, 384 kbps - Русский
Аудио: AC3, 6 ch, 384 kbps - Английский
Complete name : Chas.istinyi.2020.WEB-DL.1O8Op.ELEKTRI4KA.UNIONGANG.mkv
Format : Matroska
Format version : Version 4/Version 2
File size : 4.27 GiB
Duration : 1 h 54 min
Overall bit rate : 5 324 kb/s
Movie name : .ELEKTRI4KA.UNIONGANG.
Encoded date : UTC 2020-08-21 08: 44: 36
Writing application : mkvmerge v8.3.0 (\'Over the Horizon\') 64bit
Writing library : libebml v1.3.1 + libmatroska v1.4.2
Video
ID : 1
Format : AVC
Format/Info : Advanced Video Codec
Format profile : High@L4
Format settings, CABAC : Yes
Format settings, Reference frames : 5 frames
Codec ID : V_MPEG4/ISO/AVC
Duration : 1 h 54 min
Bit rate : 4 554 kb/s
Width : 1 920 pixels
Height : 804 pixels
Display aspect ratio : 2.40: 1
Frame rate mode : Constant
Frame rate : 24.000 FPS
Color space : YUV
Chroma subsampling : 4: 2: 0
Bit depth : 8 bits
Scan type : Progressive
Bits/(Pixel*Frame) : 0.123
Stream size : 3.65 GiB (86%)
Language : English
Default : Yes
Forced : No
Color range : Limited
Color primaries : BT.709
Transfer characteristics : BT.709
Matrix coefficients : BT.709
Audio #1
ID : 2
Format : AC-3
Format/Info : Audio Coding 3
Mode extension : CM (complete main)
Format settings, Endianness : Big
Codec ID : A_AC3
Duration : 1 h 54 min
Bit rate mode : Constant
Bit rate : 384 kb/s
Channel(s) : 6 channels
Channel positions : Front: L C R, Side: L R, LFE
Sampling rate : 48.0 kHz
Frame rate : 31.250 FPS (1536 spf)
Bit depth : 16 bits
Compression mode : Lossy
Stream size : 315 MiB (7%)
Title : iTunes
Language : Russian
Default : Yes
Forced : Yes
Audio #2
ID : 3
Format : AC-3
Format/Info : Audio Coding 3
Mode extension : CM (complete main)
Format settings, Endianness : Big
Codec ID : A_AC3
Duration : 1 h 54 min
Bit rate mode : Constant
Bit rate : 384 kb/s
Channel(s) : 6 channels
Channel positions : Front: L C R, Side: L R, LFE
Sampling rate : 48.0 kHz
Frame rate : 31.250 FPS (1536 spf)
Bit depth : 16 bits
Compression mode : Lossy
Stream size : 315 MiB (7%)
Language : English
Default : No
Forced : No
Text
ID : 4
Format : UTF-8
Codec ID : S_TEXT/UTF8
Codec ID/Info : UTF-8 Plain Text
Duration : 1 h 51 min
Bit rate : 79 b/s
Count of elements : 1266
Stream size : 65.3 KiB (0%)
Title : Full
Language : Russian
Default : No
Forced : No
Menu
00: 00: 00.000 : ru: Р“Рава 1
00: 04: 42.958 : ru: Р“Рава 2
00: 13: 35.958 : ru: Р“Рава 3
00: 18: 31.374 : ru: Р“Рава 4
00: 23: 03.374 : ru: Р“Рава 5
00: 29: 45.707 : ru: Р“Рава 6
00: 37: 53.748 : ru: Р“Рава 7
00: 48: 15.581 : ru: Р“Рава 8
00: 56: 11.997 : ru: Р“Рава 9
01: 05: 33.247 : ru: Р“Рава 10
01: 16: 48.413 : ru: Р“Рава 11
01: 25: 14.038 : ru: Р“Рава 12
01: 36: 12.496 : ru: Р“Рава 13
01: 41: 48.662 : ru: Р“Рава 14

Скриншоты для ознакомления



Все одноименные релизы в Клубе
Время раздачи: 24/7 (мультитрекер)
 
Уважаемый посетитель, Вы зашли на сайт как незарегистрированный пользователь. Мы рекомендуем Вам зарегистрироваться либо зайти на сайт под своим именем.

Другие новости по теме:

  • Час истины / Hour of Lead (2020) WEB-DLRip
  • Час истины / Hour of Lead / The Vanished (2020) WEB-DLRip [H.264]


  • Информация
    Посетители, находящиеся в группе Гости, не могут оставлять комментарии в данной новости.
    Главная страница | Регистрация | Добавить новость | Новое на сайте Copyright © 2019. bolt.mmix.club All Rights Reserved