Подписывайся на наш канал в Telegram https://t.me/torrentok и получи доступ к торрентам без ограничений!
. bolt.mmix.club
Авторские права
con...@...Показать
Вход на сайт
Логин:
Пароль:
 
Навигация по сайту
Популярные статьи

Торрент трекер | Скачать торрент | Скачать через Торрент | Скачать торрент бесплатно | Скачать торрент без регистрации Фильмы торрент скачать Маяк / The Lighthouse (2019) DVD9 торрент скачать бесплатно

Маяк / The Lighthouse (2019) DVD9 торрент скачать бесплатно

Фильмы торрент скачать
Маяк / The Lighthouse (2019) DVD9Производство: Канада, США/Universal Pictures, Focus Features, A24, New Regency Pictures, RT Features
Жанр: Ужасы, фэнтези, драма
Режиссер: Роберт Эггерс
Продюсер: Роберт Эггерс, Юри Хенли, Лоренцо Сантанна

Актеры
Роберт Паттинсон, Уиллем Дефо, Валерия Караман, Логан Хоукс, Кайла Николль, Шон Кларк, Пьер Ришар, Престон Хадсон, Джеффри Кратс

Описание

1890-е годы, где-то неподалёку от побережья Новой Англии. Молодой человек Эфраим Уинслоу приезжает на отдалённый остров работать новым помощником смотрителя маяка, хромого бородатого любителя выпить Томаса Уэйка. Тот обращается с подчинённым как с личным рабом и запрещает ему подниматься на сам маяк и управлять светом. Эфраима не отпускает собственное прошлое, так поначалу отказывавшийся от алкоголя парень всё чаще прикладывается к бутылке, и вскоре на каменистом острове - то ли ему мерещится, то ли в самом деле - начинает твориться всякая чертовщина.


Возраст: 18+ (зрителям, достигшим 18 лет. запрещено для детей)
Рейтинг MPAA: R (лицам до 17 лет обязательно присутствие взрослого)
Дата мировой премьеры: 19 мая 2019
Дата российской премьеры: 16 января 2020, UPI

Продолжительность: 01: 44: 50
Качество видео: DVD9 R5
Перевод: Дублированный (лицензия)
Субтитры: Русские, английские, чешские, венгерские, польские, греческие, болгарские, румынские
Доп. материалы: Удалённые эпизоды, Страшная и штормовая сказка, Комментарий к фильму (переведены русскими субтитрами)
Видео: MPEG-2, 720x576@1024x576 (PAL 16: 9), ~5700 Kbps
Аудио 1: AC3 5.1, 384 Kbps Английский - оригинал
Аудио 2: AC3 5.1, 384 Kbps Русский - дублированный
Аудио 3: AC3 5.1, 384 Kbps Венгерский - дублированный
Аудио 4: AC3 5.1, 384 Kbps Польский - одноголосыйTitle: The Lighthouse (2019) DVD9 R2
Size: 6.76 Gb ( 7 084 640, 00 KBytes ) - DVD-9
Enabled regions: 1, 2, 3, 4, 5, 6, 7, 8
VTS_01 :
Play Length: 00: 00: 25
Video: PAL 16: 9 (720x576) VBR, Auto Letterboxed
Audio:
English (Dolby AC3, 6 ch)
VTS_02 :
Play Length: 00: 00: 05+00: 04: 00
Video: PAL 16: 9 (720x576) VBR, Auto PanScan
VTS_03 :
Play Length: 00: 00: 08
Video: PAL 16: 9 (720x576) VBR, Auto Letterboxed
Audio:
English (Dolby AC3, 6 ch)
VTS_04 :
Play Length: 00: 00: 00
Video: PAL 16: 9 (720x576) VBR, Auto Letterboxed
VTS_05 :
Play Length: 00: 02: 53+{00: 00: 43}+{00: 02: 04}
Video: PAL 16: 9 (720x576) VBR, Auto Letterboxed
Audio:
English, AC3, 2/0 (L, R) ch, 192 kbps, Delay 0 mSec
Subtitles:
English
Russian
VTS_06 :
Play Length: 00: 00: 00
Video: PAL 16: 9 (720x576) VBR, Auto Letterboxed
VTS_07 :
Play Length: 00: 00: 00
Video: PAL 16: 9 (720x576) VBR, Auto Letterboxed
VTS_08 :
Play Length: 00: 00: 00
Video: PAL 16: 9 (720x576) VBR, Auto Letterboxed
VTS_09 :
Play Length: 00: 00: 00
Video: PAL 16: 9 (720x576) VBR, Auto Letterboxed
VTS_10 :
Play Length: 00: 00: 00
Video: PAL 16: 9 (720x576) VBR, Auto Letterboxed
VTS_11 :
Play Length: 00: 36: 17+00: 17: 53+00: 14: 37+{00: 03: 57}
Video: PAL 16: 9 (720x576) VBR, Auto Letterboxed
Audio:
English (Dolby AC3, 2 ch)
Subtitles:
English
Russian
VTS_12 :
Play Length: 00: 00: 00
Video: PAL 16: 9 (720x576) VBR, Auto Letterboxed
VTS_13 :
Play Length: 01: 44: 50
Video: PAL 16: 9 (720x576) VBR, Auto Letterboxed
Audio:
English (Dolby AC3, 6 ch)
Russian (Dolby AC3, 6 ch)
Magyar (Dolby AC3, 6 ch)
Polish (Dolby AC3, 6 ch)
English (Dolby AC3, 2 ch)
Subtitles:
English
Russian
Czech(Ceske)
Magyar
Polish
Greek
Bulgarian
Romanian
English
Russian
Magyar
VTS_14 :
Play Length: 00: 00: 00+{00: 00: 00}
Video: PAL 16: 9 (720x576) VBR, Auto Letterboxed
VTS_15 :
Play Length: 00: 00: 00
Video: PAL 16: 9 (720x576) VBR, Auto LetterboxedОбщее
Полное имя : D: TorrentsThe Lighthouse (2019) DVD9 R2VIDEO_TSVTS_13_3.VOB
Формат : MPEG-PS
Размер файла : 1 024 Мбайт
Продолжительность : 18 м. 43 с.
Режим общего битрейта : Переменный
Общий поток : 7 641 Кбит/сек
Видео
Идентификатор : 224 (0xE0)
Формат : MPEG Video
Версия формата : Version 2
Профиль формата : Main@Main
Настройки формата : CustomMatrix/BVOP
Параметр BVOP формата : Да
Параметр матрицы формата : Выборочная
Параметр GOP формата : Variable
Структура изображения : Frame
Продолжительность : 18 м. 43 с.
Вид битрейта : Переменный
Битрейт : 5 761 Кбит/сек
Максимальный битрейт : 6 500 Кбит/сек
Ширина : 720 пикселей
Высота : 576 пикселей
Соотношение сторон : 16: 9
Частота кадров : 25, 000 кадров/сек
Стандарт вещания : PAL
Цветовое пространство : YUV
Субдискретизация насыщенности : 4: 2: 0
Битовая глубина : 8 бит
Тип развёртки : Чересстрочная
Порядок развёртки : Верхнее поле первое
Метод сжатия : С потерями
Бит/(Пиксели*Кадры) : 0.556
Временной код первого кадра : 01: 39: 51: 19
Оригинал временного кода : Group of pictures t_head
Размер потока : 772 Мбайт (75%)
Аудио #1
Идентификатор : 189 (0xBD)-128 (0x80)
Формат : AC-3
Формат/Информация : Audio Coding 3
Коммерческое название : Dolby Digital
Режим смешивания : DVD-Video
Продолжительность : 18 м. 43 с.
Вид битрейта : Постоянный
Битрейт : 384 Кбит/сек
Каналы : 6 каналов
Channel layout : L R C LFE Ls Rs
Частота : 48, 0 КГц
Частота кадров : 31, 250 кадров/сек (1536 SPF)
Метод сжатия : С потерями
Задержка видео : -264 мс.
Размер потока : 51, 4 Мбайт (5%)
Service kind : Complete Main
Аудио #2
Идентификатор : 189 (0xBD)-129 (0x81)
Формат : AC-3
Формат/Информация : Audio Coding 3
Коммерческое название : Dolby Digital
Режим смешивания : DVD-Video
Продолжительность : 18 м. 43 с.
Вид битрейта : Постоянный
Битрейт : 384 Кбит/сек
Каналы : 6 каналов
Channel layout : L R C LFE Ls Rs
Частота : 48, 0 КГц
Частота кадров : 31, 250 кадров/сек (1536 SPF)
Метод сжатия : С потерями
Задержка видео : -264 мс.
Размер потока : 51, 4 Мбайт (5%)
Service kind : Complete Main
Аудио #3
Идентификатор : 189 (0xBD)-130 (0x82)
Формат : AC-3
Формат/Информация : Audio Coding 3
Коммерческое название : Dolby Digital
Режим смешивания : DVD-Video
Продолжительность : 18 м. 43 с.
Вид битрейта : Постоянный
Битрейт : 384 Кбит/сек
Каналы : 6 каналов
Channel layout : L R C LFE Ls Rs
Частота : 48, 0 КГц
Частота кадров : 31, 250 кадров/сек (1536 SPF)
Метод сжатия : С потерями
Задержка видео : -264 мс.
Размер потока : 51, 4 Мбайт (5%)
Service kind : Complete Main
Аудио #4
Идентификатор : 189 (0xBD)-131 (0x83)
Формат : AC-3
Формат/Информация : Audio Coding 3
Коммерческое название : Dolby Digital
Режим смешивания : DVD-Video
Продолжительность : 18 м. 43 с.
Вид битрейта : Постоянный
Битрейт : 384 Кбит/сек
Каналы : 6 каналов
Channel layout : L R C LFE Ls Rs
Частота : 48, 0 КГц
Частота кадров : 31, 250 кадров/сек (1536 SPF)
Метод сжатия : С потерями
Задержка видео : -264 мс.
Размер потока : 51, 4 Мбайт (5%)
Service kind : Complete Main
Аудио #5
Идентификатор : 189 (0xBD)-132 (0x84)
Формат : AC-3
Формат/Информация : Audio Coding 3
Коммерческое название : Dolby Digital
Режим смешивания : DVD-Video
Продолжительность : 18 м. 43 с.
Вид битрейта : Постоянный
Битрейт : 192 Кбит/сек
Каналы : 2 канала
Channel layout : L R
Частота : 48, 0 КГц
Частота кадров : 31, 250 кадров/сек (1536 SPF)
Метод сжатия : С потерями
Задержка видео : -232 мс.
Размер потока : 25, 7 Мбайт (3%)
Service kind : Complete Main
Текст #1
Идентификатор : 189 (0xBD)-32 (0x20)
Формат : RLE
Формат/Информация : Run-length encoding
Режим смешивания : DVD-Video
Продолжительность : 18 м. 37 с.
Задержка видео : 3 с. 400 мс.
Текст #2
Идентификатор : 189 (0xBD)-40 (0x28)
Формат : RLE
Формат/Информация : Run-length encoding
Режим смешивания : DVD-Video
Продолжительность : 18 м. 37 с.
Задержка видео : 4 с. 120 мс.
Текст #3
Идентификатор : 189 (0xBD)-33 (0x21)
Формат : RLE
Формат/Информация : Run-length encoding
Режим смешивания : DVD-Video
Текст #4
Идентификатор : 189 (0xBD)-34 (0x22)
Формат : RLE
Формат/Информация : Run-length encoding
Режим смешивания : DVD-Video
Текст #5
Идентификатор : 189 (0xBD)-35 (0x23)
Формат : RLE
Формат/Информация : Run-length encoding
Режим смешивания : DVD-Video
Текст #6
Идентификатор : 189 (0xBD)-36 (0x24)
Формат : RLE
Формат/Информация : Run-length encoding
Режим смешивания : DVD-Video
Текст #7
Идентификатор : 189 (0xBD)-37 (0x25)
Формат : RLE
Формат/Информация : Run-length encoding
Режим смешивания : DVD-Video
Текст #8
Идентификатор : 189 (0xBD)-38 (0x26)
Формат : RLE
Формат/Информация : Run-length encoding
Режим смешивания : DVD-Video
Текст #9
Идентификатор : 189 (0xBD)-39 (0x27)
Формат : RLE
Формат/Информация : Run-length encoding
Режим смешивания : DVD-Video
Меню
 
Уважаемый посетитель, Вы зашли на сайт как незарегистрированный пользователь. Мы рекомендуем Вам зарегистрироваться либо зайти на сайт под своим именем.

Другие новости по теме:

  • Маяк / The Lighthouse (2019) CAMRip [H.264 / 720p-LQ] [MVO] [AD]
  • Маяк / The Lighthouse (2019) WEB-DLRip [MVO] [AD]
  • Маяк / The Lighthouse (2019) WEB-DLRip [H.264 / 1080p-LQ] [MVO] [AD]
  • Маяк / The Lighthouse (2019) WEB-DL [H.264 / 1080p] [MVO]
  • Маяк / The Lighthouse (2019) WEBRip [H.264 / 720p] [MVO] [PR]
  • Маяк / The Lighthouse (2019) WEB-DL [1080p] ATV
  • Маяк / The Lighthouse (2019) BDRip [MVO]
  • Маяк / The Lighthouse (2019) BDRemux [H.264 / 1080p] [MVO]


  • Информация
    Посетители, находящиеся в группе Гости, не могут оставлять комментарии в данной новости.
    Главная страница | Регистрация | Добавить новость | Новое на сайте Copyright © 2019. bolt.mmix.club All Rights Reserved