Подписывайся на наш канал в Telegram https://t.me/torrentok и получи доступ к торрентам без ограничений!
. bolt.mmix.club
Авторские права
con...@...Показать
Вход на сайт
Логин:
Пароль:
 
Навигация по сайту
Популярные статьи

Торрент трекер | Скачать торрент | Скачать через Торрент | Скачать торрент бесплатно | Скачать торрент без регистрации Фильмы торрент скачать Честный кандидат / Irresistible (2020) WEB-DL [H.265 / 2160p] [4K, HDR+, 10-bit] [MVO] торрент скачать бесплатно

Честный кандидат / Irresistible (2020) WEB-DL [H.265 / 2160p] [4K, HDR+, 10-bit] [MVO] торрент скачать бесплатно

Фильмы торрент скачать
Честный кандидат / Irresistible (2020) WEB-DL [H.265 / 2160p] [4K, HDR+, 10-bit] [MVO]Производство: США/Busboy Productions, Plan B Entertainment
Жанр: Драма, Комедия
Режиссер: Джон Стюарт

Актеры
Стив Карелл, Роуз Бирн, Крис Купер, Брент Секстон, Уилл Сассо, С.Дж. Уилсон, Кевин Майер, Том Ки, Тофер Грэйс, Алан Айзенберг

Описание

Политический консультант-демократ помогает отставному полковнику морской пехоты баллотироваться на пост мэра в маленьком городке в штате Висконсин, где большая часть жителей придерживается правых взглядов.


Рейтинг MPAA: R (лицам до 17 лет обязательно присутствие взрослого)
Дата мировой премьеры: 26 июня 2020
Дата российской премьеры: 1 октября 2020 , UPI
Продолжительность: 01: 42: 00
Качество видео: WEB-DL
Перевод: Многоголосый профессиональный
Субтитры: Английские
Видео: HEVC/H.265, 3600x2160, ~14, 7 Mbps
Аудио 1: AC3, 6 ch, 448 Kbps - Русский (MVO, HDRezka Studio)
Аудио 2: E-AC3, 6 ch, 640 Kbps - Английский
Общее
Уникальный идентификатор : 50322140606380117289618205276848410226 (0x25DBB116433517CACEE26B6267D64E72)
Полное имя : C: Irresistible.2020.WEB-DL.2160p.mkv
Формат : Matroska
Версия формата : Version 4
Размер файла : 11, 3 Гбайт
Продолжительность : 1 ч. 42 м.
Общий поток : 15, 8 Мбит/сек
Дата кодирования : UTC 2020-08-21 19: 17: 21
Программа кодирования : mkvmerge v49.0.0 (\'Sick Of Losing Soulmates\') 64-bit
Библиотека кодирования : libebml v1.4.0 + libmatroska v1.6.1
Видео
Идентификатор : 1
Формат : HEVC
Формат/Информация : High Efficiency Video Coding
Профиль формата : Main 10@L5@Main
HDR format : SMPTE ST 2094 App 4, Version 1, HDR10+ Profile B compatible
Идентификатор кодека : V_MPEGH/ISO/HEVC
Продолжительность : 1 ч. 42 м.
Битрейт : 14, 7 Мбит/сек
Ширина : 3 600 пикселей
Высота : 2 160 пикселей
Соотношение сторон : 5: 3
Режим частоты кадров : Постоянный
Частота кадров : 23, 976 (24000/1001) кадра/сек
Цветовое пространство : YUV
Субдискретизация насыщенности : 4: 2: 0
Битовая глубина : 10 бит
Бит/(Пиксели*Кадры) : 0.079
Размер потока : 10, 5 Гбайт (93%)
Default : Да
Forced : Нет
Цветовой диапазон : Limited
Основные цвета : BT.2020
Характеристики трансфера : PQ
Коэффициенты матрицы : BT.2020 non-constant
Mastering display color primaries : BT.2020
Mastering display luminance : min: 0.0050 cd/m2, max: 1000 cd/m2
Maximum Content Light Level : 879 cd/m2
Maximum Frame-Average Light Level : 99 cd/m2
Аудио #1
Идентификатор : 2
Формат : AC-3
Формат/Информация : Audio Coding 3
Коммерческое название : Dolby Digital
Идентификатор кодека : A_AC3
Продолжительность : 1 ч. 42 м.
Вид битрейта : Постоянный
Битрейт : 448 Кбит/сек
Каналы : 6 каналов
Channel layout : L R C LFE Ls Rs
Частота : 48, 0 КГц
Частота кадров : 31, 250 кадров/сек (1536 SPF)
Метод сжатия : С потерями
Размер потока : 327 Мбайт (3%)
Заголовок : MVO | HDRezka Studio
Язык : Russian
Service kind : Complete Main
Default : Да
Forced : Нет
Аудио #2
Идентификатор : 3
Формат : E-AC-3
Формат/Информация : Enhanced AC-3
Коммерческое название : Dolby Digital Plus
Идентификатор кодека : A_EAC3
Продолжительность : 1 ч. 42 м.
Вид битрейта : Постоянный
Битрейт : 640 Кбит/сек
Каналы : 6 каналов
Channel layout : L R C LFE Ls Rs
Частота : 48, 0 КГц
Частота кадров : 31, 250 кадров/сек (1536 SPF)
Метод сжатия : С потерями
Размер потока : 467 Мбайт (4%)
Язык : English
Service kind : Complete Main
Default : Нет
Forced : Нет
Текст #1
Идентификатор : 4
Формат : UTF-8
Идентификатор кодека : S_TEXT/UTF8
Идентификатор кодека/Информация : UTF-8 Plain Text
Продолжительность : 1 ч. 41 м.
Битрейт : 99 бит/сек
Count of elements : 2376
Размер потока : 74, 0 Кбайт (0%)
Язык : English
Default : Нет
Forced : Нет
Текст #2
Идентификатор : 5
Формат : UTF-8
Идентификатор кодека : S_TEXT/UTF8
Идентификатор кодека/Информация : UTF-8 Plain Text
Продолжительность : 1 ч. 41 м.
Битрейт : 99 бит/сек
Count of elements : 2392
Размер потока : 74, 0 Кбайт (0%)
Заголовок : SDH
Язык : English
Default : Нет
Forced : Нет
Меню
00: 00: 00.000 : : Глава 1
00: 05: 52.352 : : Глава 2
00: 11: 46.706 : : Глава 3
00: 18: 17.096 : : Глава 4
00: 24: 59.498 : : Глава 5
00: 32: 17.936 : : Глава 6
00: 39: 12.350 : : Глава 7
00: 46: 42.800 : : Глава 8
00: 54: 27.264 : : Глава 9
01: 02: 45.762 : : Глава 10
01: 11: 30.286 : : Глава 11
01: 19: 38.774 : : Глава 12
01: 27: 33.248 : : Глава 13
01: 35: 29.724 : : Глава 14
Просмотр 4K HDR-контента на ПК

Скриншоты для ознакомления



Все одноименные релизы в Клубе
Время раздачи: 24/7 (до появления первых 3-5 скачавших)
 
Уважаемый посетитель, Вы зашли на сайт как незарегистрированный пользователь. Мы рекомендуем Вам зарегистрироваться либо зайти на сайт под своим именем.

Другие новости по теме:

  • Честный кандидат / Irresistible (2020) WEB-DL [H.264 / 1080p] [MVO]


  • Информация
    Посетители, находящиеся в группе Гости, не могут оставлять комментарии в данной новости.
    Главная страница | Регистрация | Добавить новость | Новое на сайте Copyright © 2019. bolt.mmix.club All Rights Reserved