Подписывайся на наш канал в Telegram https://t.me/torrentok и получи доступ к торрентам без ограничений!
. bolt.mmix.club
Авторские права
con...@...Показать
Вход на сайт
Логин:
Пароль:
 
Навигация по сайту
Популярные статьи

Торрент трекер | Скачать торрент | Скачать через Торрент | Скачать торрент бесплатно | Скачать торрент без регистрации Фильмы торрент скачать Ход вещей / The Swing of Things (2020) BDRip [H.264 / 1080p] торрент скачать бесплатно

Ход вещей / The Swing of Things (2020) BDRip [H.264 / 1080p] торрент скачать бесплатно

Фильмы торрент скачать
Ход вещей / The Swing of Things (2020) BDRip [H.264 / 1080p]Производство: США, Redwire Pictures, Reflecting Pool Productions, Sprockefeller Pictures
Жанр: Комедия
Режиссер: Мэтт Шапира
Продюсер: Марк Крамп, Райан Р. Джонсон, Кент Парди

Актеры
Корд Оверстрит, Оливия Калпо, Люк Уилсон, Александр Вайшельбойм, Аделаида Кейн, Мэтт МакКой, Э.Э. Белл, Кэролин Хеннеси, Мария Бриз, Джон Ловиц

Описание

Том и Лора собираются пожениться на Ямайке. По недосмотру парень заказывает проведение торжеств в одном из отелей, где обычно собираются свингеры. Но отступать некуда, ведь все приглашенные на свадьбу гости уже собрались в отеле.


Возраст: 16+ (зрителям, достигшим 16 лет)
Рейтинг MPAA: R (лицам до 17 лет обязательно присутствие взрослого)
Дата мировой премьеры: 2 июля 2020, ...
Продолжительность: 01: 33: 25
Качество видео: BDRip
Перевод: Многоголосый профессиональный (iTunes)
Субтитры: Русские (Forced, Full), Английские (Full, )
Видео: AVC/H.264, 1920x804, ~12.5 Mbps
Аудио: AC3, 6 ch, 384 kbps - Русский
Аудио: AC3, 6 ch, 448 kbps - Английский
Общее
Уникальный идентификатор : 221897372289322247966465695971530346238 (0xA6EFE11F866CCE55B62F1EBDA61D8EFE)
Полное имя : E: Torrent4TheSwingOfThingsBDRip1080p.mkv
Формат : Matroska
Версия формата : Version 4/Version 2
Размер файла : 8, 74 Гбайт
Продолжительность : 1 ч. 33 м.
Общий поток : 13, 4 Мбит/сек
Дата кодирования : UTC 2020-08-20 18: 57: 11
Программа кодирования : mkvmerge v9.5.0 (\'Quiet Fire\') 64bit
Библиотека кодирования : libebml v1.3.4 + libmatroska v1.4.5
Видео
Идентификатор : 1
Формат : AVC
Формат/Информация : Advanced Video Codec
Профиль формата : High@L4.1
Настройки формата : CABAC/5 Ref Frames
Параметр CABAC формата : Да
Параметр RefFrames формата : 5 кадров
Идентификатор кодека : V_MPEG4/ISO/AVC
Продолжительность : 1 ч. 33 м.
Битрейт : 12, 6 Мбит/сек
Ширина : 1920 пикселей
Высота : 804 пикселя
Соотношение сторон : 2, 40: 1
Режим частоты кадров : Постоянный
Частота кадров : 23, 976 (23976/1000) кадра/сек
Цветовое пространство : YUV
Субдискретизация насыщенности : 4: 2: 0
Битовая глубина : 8 бит
Тип развёртки : Прогрессивная
Бит/(Пиксели*Кадры) : 0.340
Размер потока : 8, 20 Гбайт (94%)
Заголовок : Sisendrovich(R)
Библиотека кодирования : x264 core 161 r3018 db0d417
Настройки программы : cabac=1/ref=5/deblock=1: -1: -1/analyse=0x3: 0x133/me=tesa/subme=11/psy=1/psy_rd=1.00: 0.00/mixed_ref=1/me_range=32/chroma_me=1/trellis=2/8x8dct=1/cqm=0/deadzone=21, 11/fast_pskip=0/chroma_qp_offset=-2/threads=24/lookahead_threads=4/sliced_threads=0/nr=0/decimate=0/interlaced=0/bluray_compat=0/constrained_intra=0/bframes=8/b_pyramid=2/b_adapt=2/b_bias=0/direct=3/weightb=1/open_gop=0/weightp=2/keyint=240/keyint_min=23/scenecut=40/intra_refresh=0/rc_lookahead=60/rc=2pass/mbtree=0/bitrate=12566/ratetol=1.0/qcomp=0.70/qpmin=0/qpmax=69/qpstep=4/cplxblur=20.0/qblur=0.5/vbv_maxrate=50000/vbv_bufsize=62500/nal_hrd=none/filler=0/ip_ratio=1.40/pb_ratio=1.30/aq=3: 0.80
Язык : English
Default : Да
Forced : Нет
Аудио #1
Идентификатор : 2
Формат : AC-3
Формат/Информация : Audio Coding 3
Параметр Endianness формата : Big
Идентификатор кодека : A_AC3
Продолжительность : 1 ч. 33 м.
Вид битрейта : Постоянный
Битрейт : 384 Кбит/сек
Каналы : 6 каналов
Расположение каналов : Front: L C R, Side: L R, LFE
Частота : 48, 0 КГц
Частота кадров : 31, 250 кадров/сек (1536 SPF)
Битовая глубина : 16 бит
Метод сжатия : С потерями
Размер потока : 257 Мбайт (3%)
Заголовок : rus
Язык : Russian
Default : Да
Forced : Нет
Аудио #2
Идентификатор : 3
Формат : AC-3
Формат/Информация : Audio Coding 3
Параметр Endianness формата : Big
Идентификатор кодека : A_AC3
Продолжительность : 1 ч. 33 м.
Вид битрейта : Постоянный
Битрейт : 448 Кбит/сек
Каналы : 6 каналов
Расположение каналов : Front: L C R, Side: L R, LFE
Частота : 48, 0 КГц
Частота кадров : 31, 250 кадров/сек (1536 SPF)
Битовая глубина : 16 бит
Метод сжатия : С потерями
Размер потока : 299 Мбайт (3%)
Заголовок : eng
Язык : English
Default : Нет
Forced : Нет
Текст #1
Идентификатор : 4
Формат : UTF-8
Идентификатор кодека : S_TEXT/UTF8
Идентификатор кодека/Информация : UTF-8 Plain Text
Продолжительность : 1 ч. 25 м.
Битрейт : 1 бит/сек
ElementCount : 35
Размер потока : 1, 24 Кбайт (0%)
Заголовок : rusForced
Язык : Russian
Default : Да
Forced : Нет
Текст #2
Идентификатор : 5
Формат : UTF-8
Идентификатор кодека : S_TEXT/UTF8
Идентификатор кодека/Информация : UTF-8 Plain Text
Продолжительность : 1 ч. 31 м.
Битрейт : 121 бит/сек
ElementCount : 1412
Размер потока : 81, 4 Кбайт (0%)
Заголовок : rusFull
Язык : Russian
Default : Нет
Forced : Нет
Текст #3
Идентификатор : 6
Формат : UTF-8
Идентификатор кодека : S_TEXT/UTF8
Идентификатор кодека/Информация : UTF-8 Plain Text
Продолжительность : 1 ч. 31 м.
Битрейт : 72 бит/сек
ElementCount : 1409
Размер потока : 48, 7 Кбайт (0%)
Заголовок : engFull
Язык : English
Default : Нет
Forced : Нет
Меню
00: 00: 00.000 : en: Chapter 01
00: 05: 36.085 : en: Chapter 02
00: 09: 36.492 : en: Chapter 03
00: 15: 25.883 : en: Chapter 04
00: 20: 19.092 : en: Chapter 05
00: 26: 51.818 : en: Chapter 06
00: 32: 20.980 : en: Chapter 07
00: 39: 52.223 : en: Chapter 08
00: 45: 29.226 : en: Chapter 09
00: 51: 11.443 : en: Chapter 10
00: 55: 40.712 : en: Chapter 11
01: 02: 24.741 : en: Chapter 12
01: 08: 54.171 : en: Chapter 13
01: 15: 10.255 : en: Chapter 14
01: 20: 46.299 : en: Chapter 15
01: 27: 58.773 : en: Chapter 16

Скриншоты для ознакомления



Все одноименные релизы в Клубе
Время раздачи: 24/7 (мультитрекер)
 
Уважаемый посетитель, Вы зашли на сайт как незарегистрированный пользователь. Мы рекомендуем Вам зарегистрироваться либо зайти на сайт под своим именем.

Другие новости по теме:

  • Ход вещей / The Swing of Things (2020) BDRemux [H.264 / 1080p]
  • Ход вещей / The Swing of Things (2020) BDRip [H.264 / 720p]


  • Информация
    Посетители, находящиеся в группе Гости, не могут оставлять комментарии в данной новости.
    Главная страница | Регистрация | Добавить новость | Новое на сайте Copyright © 2019. bolt.mmix.club All Rights Reserved