Подписывайся на наш канал в Telegram https://t.me/torrentok и получи доступ к торрентам без ограничений!
. bolt.mmix.club
Авторские права
con...@...Показать
Вход на сайт
Логин:
Пароль:
 
Навигация по сайту
Популярные статьи

Торрент трекер | Скачать торрент | Скачать через Торрент | Скачать торрент бесплатно | Скачать торрент без регистрации Фильмы торрент скачать Морские паразиты / Sea Fever (2019) BDRip [H.264 / 1080p] торрент скачать бесплатно

Морские паразиты / Sea Fever (2019) BDRip [H.264 / 1080p] торрент скачать бесплатно

Фильмы торрент скачать
Морские паразиты / Sea Fever (2019) BDRip [H.264 / 1080p]Производство: Ирландия, США, Великобритания, Швеция, Бельгия, Bright Moving Pictures, Creativity Capital, Fantastic Films, Flexibon Films, Makar Productions
Жанр: Ужасы, фантастика
Режиссер: Ниса Хардиман
Продюсер: Брендан Маккарти, Джон МакДоннел, Шакед Беренсон

Актеры
Гермиона Корфилд, Даг Малмберг, Джек Хикки, Олуэн Фуэре, Дюгрей Скотт, Конни Нильсен, Ардалан Эсмаили, Эли Буаказе

Описание
Ирландия. Студентка Шеворн - настоящий интроверт. Девушка изучает морскую биологию, и ей интереснее смотреть в микроскоп, чем общаться с сокурсниками. Она отправляется проходить практику на небольшом рыболовецком судне, что сулит новые впечатления и богатый материал для научных исследований, хотя команда и не в восторге от пассажирки, так как её рыжие волосы являются плохой приметой. Но тем не менее, капитан решает рискнуть и заплывает в запретную зону, где корабль внезапно застревает. Выясняется, что к бортам судна присосались неизвестные науке морские существа, и они явно способны менять структуру и растворять всё, чего касаются.


Возраст: 18+ (зрителям, достигшим 18 лет. запрещено для детей)
Дата мировой премьеры: 5 сентября 2019
Дата российской премьеры: 1 августа 2020, Кинологистика
Релиз от: NNMClub
Продолжительность: 01: 34: 13
Качество видео: BDRip 1080p
Перевод: Дублированный, Авторский
Субтитры: Русские (Full, SDH), Английские (Full, SDH)
Видео: AVC/H.264, 1920x804, 8000 kbps, 23.976 FPS
Аудио 1 : AC-3, 6 ch, 384 kbps | Русский Dub iTunes
Аудио 2 : AC-3, 6 ch, 448 kbps | Русский AVO C.Визгунов
Аудио 3 : DTS, 6 ch, 1509 kbps | Английский
General
Unique ID : 283789592441674176220964315551571353640 (0xD57FE32C92CE1E2B88B7771300BBA028)
Complete name : /Users/imac/HandBrake/Sea.Fever.BDRip.1080p.pk.mkv
Format : Matroska
Format version : Version 4
File size : 6.81 GiB
Duration : 1 h 34 min
Overall bit rate : 10.3 Mb/s
Movie name : Sea Fever BDRip 1080p pk
Encoded date : UTC 2020-08-21 16: 08: 41
Writing application : mkvmerge v49.0.0 (\'Sick Of Losing Soulmates\') 64-bit
Writing library : libebml v1.4.0 + libmatroska v1.6.1
Video
ID : 1
Format : AVC
Format/Info : Advanced Video Codec
Format profile : High@L4.1
Format settings : CABAC/5 Ref Frames
Format settings, CABAC : Yes
Format settings, Reference frames : 5 frames
Codec ID : V_MPEG4/ISO/AVC
Duration : 1 h 34 min
Bit rate : 8 000 kb/s
Width : 1 920 pixels
Height : 804 pixels
Display aspect ratio : 2.40: 1
Frame rate mode : Constant
Frame rate : 23.976 (24000/1001) FPS
Color space : YUV
Chroma subsampling : 4: 2: 0
Bit depth : 8 bits
Scan type : Progressive
Bits/(Pixel*Frame) : 0.216
Stream size : 5.27 GiB (77%)
Writing library : x264 core 157 r2935 545de2f
Encoding settings : cabac=1/ref=5/deblock=1: -3: -2/analyse=0x3: 0x133/me=umh/subme=9/psy=1/psy_rd=1.00: 0.00/mixed_ref=1/me_range=32/chroma_me=1/trellis=2/8x8dct=1/cqm=0/deadzone=6, 6/fast_pskip=1/chroma_qp_offset=-2/threads=25/lookahead_threads=6/sliced_threads=0/nr=0/decimate=0/interlaced=0/bluray_compat=0/constrained_intra=0/bframes=16/b_pyramid=2/b_adapt=2/b_bias=0/direct=3/weightb=1/open_gop=0/weightp=2/keyint=240/keyint_min=24/scenecut=40/intra_refresh=0/rc_lookahead=40/rc=2pass/mbtree=1/bitrate=8000/ratetol=1.0/qcomp=0.80/qpmin=0/qpmax=69/qpstep=4/cplxblur=20.0/qblur=0.5/vbv_maxrate=62500/vbv_bufsize=78125/nal_hrd=none/filler=0/ip_ratio=1.10/aq=1: 0.50
Language : English
Default : Yes
Forced : No
Color range : Limited
Color primaries : BT.709
Transfer characteristics : BT.709
Matrix coefficients : BT.709
Audio #1
ID : 2
Format : AC-3
Format/Info : Audio Coding 3
Commercial name : Dolby Digital
Codec ID : A_AC3
Duration : 1 h 34 min
Bit rate mode : Constant
Bit rate : 384 kb/s
Channel(s) : 6 channels
Channel layout : L R C LFE Ls Rs
Sampling rate : 48.0 kHz
Frame rate : 31.250 FPS (1536 SPF)
Compression mode : Lossy
Stream size : 259 MiB (4%)
Title : Russian Dub iTunes
Language : Russian
Service kind : Complete Main
Default : Yes
Forced : No
Audio #2
ID : 3
Format : AC-3
Format/Info : Audio Coding 3
Commercial name : Dolby Digital
Codec ID : A_AC3
Duration : 1 h 34 min
Bit rate mode : Constant
Bit rate : 448 kb/s
Channel(s) : 6 channels
Channel layout : L R C LFE Ls Rs
Sampling rate : 48.0 kHz
Frame rate : 31.250 FPS (1536 SPF)
Compression mode : Lossy
Stream size : 302 MiB (4%)
Title : Russian AVO Vizgunov
Language : Russian
Service kind : Complete Main
Default : No
Forced : No
Audio #3
ID : 4
Format : DTS
Format/Info : Digital Theater Systems
Codec ID : A_DTS
Duration : 1 h 34 min
Bit rate mode : Constant
Bit rate : 1 509 kb/s
Channel(s) : 6 channels
Channel layout : C L R Ls Rs LFE
Sampling rate : 48.0 kHz
Frame rate : 93.750 FPS (512 SPF)
Bit depth : 16 bits
Compression mode : Lossy
Stream size : 1 017 MiB (15%)
Title : English Original
Language : English
Default : No
Forced : No
Text #1
ID : 5
Format : UTF-8
Codec ID : S_TEXT/UTF8
Codec ID/Info : UTF-8 Plain Text
Duration : 1 h 26 min
Bit rate : 68 b/s
Count of elements : 879
Stream size : 43.9 KiB (0%)
Title : Russian Full (Khotya-303)
Language : Russian
Default : No
Forced : No
Text #2
ID : 6
Format : UTF-8
Codec ID : S_TEXT/UTF8
Codec ID/Info : UTF-8 Plain Text
Duration : 1 h 28 min
Bit rate : 79 b/s
Count of elements : 1133
Stream size : 51.5 KiB (0%)
Title : Russian SDH
Language : Russian
Default : No
Forced : No
Text #3
ID : 7
Format : UTF-8
Codec ID : S_TEXT/UTF8
Codec ID/Info : UTF-8 Plain Text
Duration : 1 h 34 min
Bit rate : 37 b/s
Count of elements : 929
Stream size : 25.7 KiB (0%)
Title : English full
Language : English
Default : No
Forced : No
Text #4
ID : 8
Format : UTF-8
Codec ID : S_TEXT/UTF8
Codec ID/Info : UTF-8 Plain Text
Duration : 1 h 34 min
Bit rate : 44 b/s
Count of elements : 1331
Stream size : 30.5 KiB (0%)
Title : English SDH
Language : English
Default : No
Forced : No
Menu
00: 00: 00.000 : : Chapter 1
00: 13: 49.620 : : Chapter 2
00: 33: 08.320 : : Chapter 3
00: 52: 35.110 : : Chapter 4
01: 11: 14.729 : : Chapter 5
01: 26: 41.571 : : Chapter 6

x264 info: frame I: 824 Avg QP: 13.61 size: 121915
x264 info: frame P: 29741 Avg QP: 14.75 size: 68622
x264 info: frame B: 104987 Avg QP: 15.67 size: 33457
x264 info: consecutive B-frames: 3.5% 2.2% 8.6% 10.5% 9.5% 59.7% 2.4% 0.2% 0.7% 0.4% 0.1% 0.1% 0.1% 0.2% 0.1% 0.2% 1.5%
x264 info: mb I I16..4: 14.1% 73.8% 12.2%
x264 info: mb P I16..4: 3.9% 13.7% 1.6% P16..4: 33.7% 19.4% 11.2% 0.4% 0.1% skip: 16.0%
x264 info: mb B I16..4: 0.4% 1.8% 0.2% B16..8: 38.7% 13.9% 3.5% direct: 8.7% skip: 32.6% L0: 47.1% L1: 42.9% BI: 10.1%
x264 info: 8x8 transform intra: 72.2% inter: 52.3%
x264 info: direct mvs spatial: 98.7% temporal: 1.3%
x264 info: coded y, uvDC, uvAC intra: 70.1% 70.4% 48.1% inter: 31.5% 29.1% 9.2%
x264 info: i16 v, h, dc, p: 55% 14% 12% 20%
x264 info: i8 v, h, dc, ddl, ddr, vr, hd, vl, hu: 12% 9% 15% 9% 12% 11% 11% 10% 11%
x264 info: i4 v, h, dc, ddl, ddr, vr, hd, vl, hu: 21% 9% 10% 9% 12% 10% 10% 8% 11%
x264 info: i8c dc, h, v, p: 50% 22% 18% 10%
x264 info: Weighted P-Frames: Y: 4.7% UV: 1.4%
x264 info: ref P L0: 52.0% 7.1% 20.5% 10.9% 8.8% 0.6% 0.1%
x264 info: ref B L0: 77.1% 15.5% 6.0% 1.5%
x264 info: ref B L1: 93.7% 6.3%
x264 info: kb/s: 8000.40

Скриншоты для ознакомления



Все одноименные релизы в Клубе
Время раздачи: 24/7 (круглосуточно) (до появления первых 3-5 скачавших)
 
Уважаемый посетитель, Вы зашли на сайт как незарегистрированный пользователь. Мы рекомендуем Вам зарегистрироваться либо зайти на сайт под своим именем.

Другие новости по теме:

  • Морские паразиты / Sea Fever (2019) WEB-DLRip [H.264 / 1080p-LQ] [MVO, AD]
  • Морские паразиты / Sea Fever (2019) BDRip [H.264 / 1080p] [DVO] [PR]
  • Морские паразиты / Sea Fever (2019) BDRemux [H.264 / 1080p]
  • Морские паразиты / Sea Fever (2019) BDRip [H.264 / 720p] [PR]
  • Морские паразиты / Sea Fever (2019) BDRip [H.264 / 1080p] [PR]
  • Морские паразиты / Sea Fever (2019) BDRip [H.264 / 720p]
  • Морские паразиты / Sea Fever (2019) BDRip [1080p] ATV3
  • Морские паразиты / Sea Fever (2019) BDRip [H.265 / 1080p] [10-bit]


  • Информация
    Посетители, находящиеся в группе Гости, не могут оставлять комментарии в данной новости.
    Главная страница | Регистрация | Добавить новость | Новое на сайте Copyright © 2019. bolt.mmix.club All Rights Reserved