Подписывайся на наш канал в Telegram https://t.me/torrentok и получи доступ к торрентам без ограничений!
. bolt.mmix.club
Авторские права
con...@...Показать
Вход на сайт
Логин:
Пароль:
 
Навигация по сайту
Популярные статьи

Торрент трекер | Скачать торрент | Скачать через Торрент | Скачать торрент бесплатно | Скачать торрент без регистрации Фильмы торрент скачать Страна Лавкрафта / Lovecraft Country (2020) WEB-DLRip (сезон 1, серии 1 из 10) ViruseProject (обновляемая) торрент скачать бесплатно

Страна Лавкрафта / Lovecraft Country (2020) WEB-DLRip (сезон 1, серии 1 из 10) ViruseProject (обновляемая) торрент скачать бесплатно

Фильмы торрент скачать
Страна Лавкрафта / Lovecraft Country (2020) WEB-DLRip (сезон 1, серии 1 из 10) ViruseProject (обновляемая)Производство: США
Жанр: ужасы, фантастика, фэнтези, триллер, драма, детектив
Режиссер: Дэниэл Сакхайм, Ян Деманж, Шерил Дьюнай

Актеры
Джонатан Мэйджерс, Джерни Смоллетт, Кортни Б. Вэнс, Майкл Кеннет Уильямс, Чейз Браун, Онжаню Эллис, Маркус А. Гриффин мл., Эбби Ли, Вунми Моссаку, Джада Харрис и др.

Описание

Ветеран корейской войны Аттикус Фримен возвращается домой, чтобы разыскать пропавшего отца. Призрачная подсказка о том, где он может находиться, - единственное за много лет письмо, полное туманных намёков на загадочное наследие матери Аттикуса, в котором упоминается город Ардхем. Вместе с Аттикусом на поиски мистера Фримена отправляются его дядя Джозеф, любитель ужастиков и составитель безопасных путеводителей по дорогам Америки для темнокожего населения, и подруга детства Летиция, которая в школе разделяла увлечение героя научной фантастикой, а теперь борется за права чёрных.
Дальняя дорога в неизвестную, живущую суевериями глушь опасна и таинственна сама по себе, но страна Лавкрафта не была бы таковой без многоглазых монстров и хтонических щупалец. И создатели сериала обещают зрителям целый калейдоскоп историй разной степени ужасности и фантастичности.


Дата мировой премьеры: 16 августа 2020
Релиз от: ViruseProject
Продолжительность: ~01: 10: 00 серии
Качество видео: WEB-DLRip
Перевод: Двуголосый профессиональный (ViruseProject)
Субтитры: русские
Реклама: присутствуют видео, аудио вставки рекламы
Видео: XviD, 720 x 400 (16: 9), ~1800 Kbps
Аудио 1: MP3, 2 ch, 128 Kbps - русский
Аудио 2: MP3, 2 ch, 128 Kbps - английский
Общее
Полное имя : Lovecraft.Country.S01E01.400p.WEB-DLRip.ViruseProject.avi
Формат : AVI
Формат/Информация : Audio Video Interleave
Размер файла : 1, 01 Гбайт
Продолжительность : 1 ч. 10 м.
Режим общего битрейта : Переменный
Общий поток : 2 070 Кбит/сек
Программа кодирования : VirtualDubMod 1.5.10.2 (build 2540/release)
Библиотека кодирования : VirtualDubMod build 2540/release
Видео
Идентификатор : 0
Формат : MPEG-4 Visual
Профиль формата : Advanced Simple@L5
Настройки формата : BVOP1
Параметр BVOP формата : 1
Параметр QPel формата : Нет
Параметр GMC формата : Без точки перехода
Параметр матрицы формата : Default (MPEG)
Идентификатор кодека : XVID
Идентификатор кодека/Подсказка : XviD
Продолжительность : 1 ч. 10 м.
Битрейт : 1 800 Кбит/сек
Ширина : 720 пикселей
Высота : 400 пикселей
Соотношение сторон : 16: 9
Частота кадров : 23, 976 (24000/1001) кадра/сек
Цветовое пространство : YUV
Субдискретизация насыщенности : 4: 2: 0
Битовая глубина : 8 бит
Тип развёртки : Прогрессивная
Метод сжатия : С потерями
Бит/(Пиксели*Кадры) : 0.261
Размер потока : 901 Мбайт (87%)
Библиотека кодирования : XviD 67
Аудио #1
Идентификатор : 1
Формат : MPEG Audio
Версия формата : Version 1
Профиль формата : Layer 3
Настройки формата : Joint stereo/MS Stereo
Идентификатор кодека : 55
Идентификатор кодека/Подсказка : MP3
Продолжительность : 1 ч. 10 м.
Вид битрейта : Переменный
Битрейт : 128 Кбит/сек
Каналы : 2 канала
Частота : 48, 0 КГц
Частота кадров : 41, 667 кадра/сек (1152 SPF)
Метод сжатия : С потерями
Размер потока : 64, 1 Мбайт (6%)
Выравнивание : Соединение по промежуткам
Продолжительность промежутка : 42 мс. (1, 00 видеокадр)
Время предзагрузки промежутка : 504 мс.
Аудио #2
Идентификатор : 2
Формат : MPEG Audio
Версия формата : Version 1
Профиль формата : Layer 3
Настройки формата : Joint stereo/MS Stereo
Идентификатор кодека : 55
Идентификатор кодека/Подсказка : MP3
Продолжительность : 1 ч. 10 м.
Вид битрейта : Постоянный
Битрейт : 128 Кбит/сек
Каналы : 2 канала
Частота : 48, 0 КГц
Метод сжатия : С потерями
Размер потока : 64, 1 Мбайт (6%)
Выравнивание : Разделение по промежуткам
Продолжительность промежутка : 42 мс. (1, 00 видеокадр)
Время предзагрузки промежутка : 500 мс.
Библиотека кодирования : LAME3.100

Скриншоты для ознакомления



Все одноименные релизы в Клубе
Время раздачи: с 10: 00 до 24: 00 (до появления первых 3-5 скачавших)
 
Уважаемый посетитель, Вы зашли на сайт как незарегистрированный пользователь. Мы рекомендуем Вам зарегистрироваться либо зайти на сайт под своим именем.

Другие новости по теме:

  • Страна Лавкрафта / Lovecraft Country (2020) WEBRip [H.264 / 720p-LQ] (сезон 1, серия 1 из 10) LakeFilms (обновляемая) [AD]
  • Страна Лавкрафта / Lovecraft Country (2020) WEBRip [H.264 / 1080p-LQ] (сезон 1, серия 1 из 10) LakeFilms (обновляемая) [AD]
  • Страна Лавкрафта / Lovecraft Country (2020) WEB-DLRip [H.264 / 720p-LQ] (сезон 1, серии 1 из 10) OMSKBIRD (обновляемая) [AD]
  • Страна Лавкрафта / Lovecraft Country (2020) WEB-DLRip [H.264 / 1080p-LQ] (сезон 1, серии 1 из 10) OMSKBIRD (обновляемая) [AD]
  • Страна Лавкрафта / Lovecraft Country (2020) WEB-DLRip [H.264 / 1080p-LQ] (сезон 1, серии 1 из 10) ViruseProject (обновляемая) [AD]
  • Мэтт Рафф | Страна Лавкрафта (2018) [FB2]


  • Информация
    Посетители, находящиеся в группе Гости, не могут оставлять комментарии в данной новости.
    Главная страница | Регистрация | Добавить новость | Новое на сайте Copyright © 2019. bolt.mmix.club All Rights Reserved