Подписывайся на наш канал в Telegram https://t.me/torrentok и получи доступ к торрентам без ограничений!
. bolt.mmix.club
Авторские права
con...@...Показать
Вход на сайт
Логин:
Пароль:
 
Навигация по сайту
Популярные статьи

Торрент трекер | Скачать торрент | Скачать через Торрент | Скачать торрент бесплатно | Скачать торрент без регистрации Фильмы торрент скачать Как создавался Робинзон (1961) DVDRip торрент скачать бесплатно

Как создавался Робинзон (1961) DVDRip торрент скачать бесплатно

Фильмы торрент скачать
Как создавался Робинзон (1961) DVDRipЖанр: Комедия
Режиссер: Эльдap Pязaнoв

Актеры
Анатолий Папанов, Сергей Филиппов
Описание : Фильм снят на Мосфильме по мотивам одноименного фельетона И. Ильфа и Е. Петрова.
Новелла рассказывает о редакторе, которому писатель приносит роман о советском Робинзоне. Редактор умудряется сделать радикальную редактуру, например, из острова сделать полуостров и выбросить из романа самого Робинзона.
Доп. информация : Любопытно, что в фельетоне в ответ на реплику главного редактора: Но не просто Робинзон, а советский Робинзон писатель Молдаванцев отвечал: Какой же еще! Не румынский!. В фильме слово румынский заменено на турецкий.
На Кинопоиске отсутствует.
Продолжительность: 00: 13: 00
Видео: DivX 4, 512х384, ~800 Kbps
Аудио: MP3, 2 ch, 96 KbpsGeneral
Complete name : kak_sozdavalsja_Robinzon.avi
Format : AVI
Format/Info : Audio Video Interleave
File size : 86.6 MiB
Duration : 13mn 0s
Overall bit rate : 931 Kbps
Writing library : VirtualDub build 29808/release
Video
ID : 0
Format : MPEG-4 Visual
Format profile : Simple@L3
Format settings, BVOP : Yes
Format settings, QPel : No
Format settings, GMC : No warppoints
Format settings, Matrix : Default (H.263)
Codec ID : DIVX
Codec ID/Info : Project Mayo
Codec ID/Hint : DivX 4
Duration : 13mn 0s
Bit rate : 825 Kbps
Width : 512 pixels
Height : 384 pixels
Display aspect ratio : 4: 3
Frame rate : 25.000 fps
Color space : YUV
Chroma subsampling : 4: 2: 0
Bit depth : 8 bits
Scan type : Progressive
Compression mode : Lossy
Bits/(Pixel*Frame) : 0.168
Stream size : 76.7 MiB (89%)
Writing library : XviD 0.0.12 (UTC 2003-06-11)
Audio
ID : 1
Format : MPEG Audio
Format version : Version 1
Format profile : Layer 3
Mode : Joint stereo
Mode extension : MS Stereo
Codec ID : 55
Codec ID/Hint : MP3
Duration : 13mn 0s
Bit rate mode : Constant
Bit rate : 96.0 Kbps
Channel(s) : 2 channels
Sampling rate : 32.0 KHz
Compression mode : Lossy
Stream size : 8.93 MiB (10%)
Alignment : Aligned on interleaves
Interleave, duration : 36 ms (0.90 video frame)
Interleave, preload duration : 504 ms
Скриншоты для ознакомления


Время раздачи: 24/7
 
Уважаемый посетитель, Вы зашли на сайт как незарегистрированный пользователь. Мы рекомендуем Вам зарегистрироваться либо зайти на сайт под своим именем.

Другие новости по теме:

  • Cornacchi | Как создавался фотоарт "Сесиль до Воланж" (2015) PCRec


  • Информация
    Посетители, находящиеся в группе Гости, не могут оставлять комментарии в данной новости.
    Главная страница | Регистрация | Добавить новость | Новое на сайте Copyright © 2019. bolt.mmix.club All Rights Reserved