Подписывайся на наш канал в Telegram https://t.me/torrentok и получи доступ к торрентам без ограничений!
. bolt.mmix.club
Авторские права
con...@...Показать
Вход на сайт
Логин:
Пароль:
 
Навигация по сайту
Популярные статьи

Торрент трекер | Скачать торрент | Скачать через Торрент | Скачать торрент бесплатно | Скачать торрент без регистрации Фильмы торрент скачать Человек с бульвара Капуцинов (1987) BDRip [H.265 / 1080p-LQ] [10-bit] торрент скачать бесплатно

Человек с бульвара Капуцинов (1987) BDRip [H.265 / 1080p-LQ] [10-bit] торрент скачать бесплатно

Фильмы торрент скачать
Человек с бульвара Капуцинов (1987) BDRip [H.265 / 1080p-LQ] [10-bit]Производство: СССР/Мосфильм
Жанр: комедия, вестерн, мюзикл, мелодрама
Режиссер: Алла Сурикова

Актеры
Андрей Миронов, Александра Яковлева, Николай Караченцов, Олег Табаков, Леонид Ярмольник, Михаил Боярский, Спартак Мишулин, Наталья Крачковская, Михаил Светин, Игорь Кваша, Лев Дуров

Описание
В одном из ковбойских городков Дикого Запада с его традиционной стрельбой, сквернословием и мордобоем появляется тихий миссионер кино мистер Фёст. Неведомое прежде ковбоям синема до неузнаваемости меняет уклад их жизни, нравы и привычки.


Возраст: 16+ (зрителям, достигшим 16 лет)
Релиз от: ADVOKAT69 (HEVC-CLUB)
Продолжительность: 01: 37: 47
Качество видео: BDRip
Субтитры: Отсутствуют
Видео: HEVC/H.265, 1808x1080, ~6053 Kbps
Аудио: DTS, 6 ch, 1509 Kbps - Русский
====================================
x265 info: frame I: 1003, Avg QP: 18.12 kb/s: 18715.24
x265 info: frame P: 27690, Avg QP: 19.46 kb/s: 14325.19
x265 info: frame B: 111978, Avg QP: 21.55 kb/s: 3893.41
x265 info: Weighted P-Frames: Y: 14.5% UV: 12.0%
x265 info: Weighted B-Frames: Y: 6.9% UV: 5.0%
x265 info: consecutive B-frames: 3.9% 2.5% 3.7% 30.3% 10.0% 48.7% 0.6% 0.2% 0.1%
encoded 140671 frames in 127090.05s (1.11 fps), 6052.51 kb/s, Avg QP: 21.12
====================================
Общее
Уникальный идентификатор : 177255117418723736104855840403744669175 (0x855A18061CA2BEE881CFEBD1E140BDF7)
Полное имя : R: Человек с бульвара Капуцинов (1987) HEVC 10bit.mkv
Формат : Matroska
Версия формата : Version 4/Version 2
Размер файла : 5, 45 Гбайт
Продолжительность : 1 ч. 37 м.
Общий поток : 7973 Кбит/сек
Дата кодирования : UTC 2020-08-19 07: 47: 07
Программа кодирования : mkvmerge v9.2.0 (\'Photograph\') 64bit
Библиотека кодирования : libebml v1.3.3 + libmatroska v1.4.4
Видео
Идентификатор : 1
Формат : HEVC
Формат/Информация : High Efficiency Video Coding
Профиль формата : Main10@L4.1@High
Идентификатор кодека : V_MPEGH/ISO/HEVC
Продолжительность : 1 ч. 37 м.
Битрейт : 6053 Кбит/сек
Ширина : 1808 пикселей
Высота : 1080 пикселей
Соотношение сторон : 5: 3
Режим частоты кадров : Постоянный
Частота кадров : 23, 976 (24000/1001) кадра/сек
Цветовое пространство : YUV
Субдискретизация насыщенности : 4: 2: 0
Битовая глубина : 10 бит
Бит/(Пиксели*Кадры) : 0.129
Размер потока : 4, 13 Гбайт (76%)
Библиотека кодирования : x265 3.4+1-7b120308dc64: WindowsMSVC 190064 bit 10bit
Настройки программы : cpuid=1049583/frame-threads=3/numa-pools=8/wpp/no-pmode/no-pme/no-psnr/no-ssim/log-level=2/input-csp=1/input-res=1808x1080/interlace=0/total-frames=140671/level-idc=41/high-tier=1/uhd-bd=0/ref=5/no-allow-non-conformance/no-repeat-t_heads/annexb/no-aud/no-hrd/info/hash=0/no-temporal-layers/open-gop/min-keyint=24/keyint=240/gop-lookahead=0/bframes=8/b-adapt=2/b-pyramid/bframe-bias=0/rc-lookahead=40/lookahead-slices=4/scenecut=40/hist-scenecut=0/radl=0/no-splice/no-intra-refresh/ctu=32/min-cu-size=8/rect/no-amp/max-tu-size=32/tu-inter-depth=4/tu-intra-depth=4/limit-tu=1/rdoq-level=2/dynamic-rd=4.00/no-ssim-rd/signhide/no-tskip/nr-intra=0/nr-inter=0/constrained-intra/no-strong-intra-smoothing/max-merge=3/limit-refs=3/limit-modes/me=3/subme=7/merange=57/temporal-mvp/no-frame-dup/no-hme/weightp/weightb/no-analyze-src-pics/deblock=-2: -2/no-sao/no-sao-non-deblock/rd=4/selective-sao=0/no-early-skip/rskip/no-fast-intra/no-tskip-fast/no-cu-lossless/b-intra/no-splitrd-skip/rdpenalty=0/psy-rd=1.50/psy-rdoq=0.70/no-rd-refine/no-lossless/cbqpoffs=0/crqpoffs=0/rc=crf/crf=20.0/qcomp=0.60/qpstep=4/stats-write=0/stats-read=0/vbv-maxrate=50000/vbv-bufsize=50000/vbv-init=0.9/crf-max=0.0/crf-min=0.0/ipratio=1.40/pbratio=1.30/aq-mode=2/aq-strength=0.80/no-cutree/zone-count=0/no-strict-cbr/qg-size=32/no-rc-grain/qpmax=69/qpmin=0/no-const-vbv/sar=1/overscan=0/videoformat=5/range=0/colorprim=1/transfer=1/colormatrix=1/chromaloc=0/display-window=0/cll=0, 0/min-luma=0/max-luma=1023/log2-max-poc-lsb=8/vui-timing-info/vui-hrd-info/slices=1/no-opt-qp-pps/no-opt-ref-list-length-pps/no-multi-pass-opt-rps/scenecut-bias=0.05/hist-threshold=0.01/no-opt-cu-delta-qp/no-aq-motion/no-hdr10/no-hdr10-opt/no-dhdr10-opt/no-idr-recovery-sei/analysis-reuse-level=0/analysis-save-reuse-level=0/analysis-load-reuse-level=0/scale-factor=0/refine-intra=0/refine-inter=0/refine-mv=1/refine-ctu-distortion=0/no-limit-sao/ctu-info=0/no-lowpass-dct/refine-analysis-type=0/copy-pic=1/max-ausize-factor=1.0/no-dynamic-refine/no-single-sei/no-hevc-aq/no-svt/no-field/qp-adaptation-range=1.00/no-scenecut-aware-qpconformance-window-offsets/right=0/bottom=0/decoder-max-rate=0
Default : Да
Forced : Нет
Цветовой диапазон : Limited
Основные цвета : BT.709
Характеристики трансфера : BT.709
Коэффициенты матрицы : BT.709
Аудио
Идентификатор : 2
Формат : DTS
Формат/Информация : Digital Theater Systems
Профиль формата : MA/Core
Идентификатор кодека : A_DTS
Продолжительность : 1 ч. 37 м.
Вид битрейта : Переменный/Постоянный
Битрейт : 1920 Кбит/сек/1509 Кбит/сек
Каналы : 6 каналов
Расположение каналов : Front: L C R, Side: L R, LFE
Частота : 48, 0 КГц
Частота кадров : 93, 750 кадра/сек (512 SPF)
Битовая глубина : 16 бит
Метод сжатия : Без потерь/Lossy
Размер потока : 1, 31 Гбайт (24%)
Заголовок : Русский
Язык : Russian
Default : Да
Forced : Нет
Меню
00: 00: 00.000 : : Chapter 01
00: 07: 27.905 : : Chapter 02
00: 13: 55.960 : : Chapter 03
00: 21: 33.583 : : Chapter 04
00: 32: 58.101 : : Chapter 05
00: 40: 15.162 : : Chapter 06
00: 48: 34.703 : : Chapter 07
00: 53: 06.474 : : Chapter 08
01: 04: 16.477 : : Chapter 09
01: 12: 13.704 : : Chapter 10
01: 19: 41.234 : : Chapter 11
01: 27: 29.827 : : Chapter 12
 
Уважаемый посетитель, Вы зашли на сайт как незарегистрированный пользователь. Мы рекомендуем Вам зарегистрироваться либо зайти на сайт под своим именем.

Другие новости по теме:

  • VA - Антология советского киношлягера - Любимые песни из кинофильмов (Человек с бульвара Капуцинов и др.) (1996) [FLAC 2.0|16 / 44,1 (image+.cue)]<Soundtrack / Pop> скачать через торрент бесплатно
  • Человек с бульвара Капуцинов (1987) BDRip [H.264 / 1080p] скачать через торрент бесплатно
  • Человек с бульвара Капуцинов (1987) WEBRip [H.264 / 1080p-LQ]
  • Человек с бульвара Капуцинов (1987) BDRemux [H.264 / 1080p]


  • Информация
    Посетители, находящиеся в группе Гости, не могут оставлять комментарии в данной новости.
    Главная страница | Регистрация | Добавить новость | Новое на сайте Copyright © 2019. bolt.mmix.club All Rights Reserved