Подписывайся на наш канал в Telegram https://t.me/torrentok и получи доступ к торрентам без ограничений!
. bolt.mmix.club
Авторские права
con...@...Показать
Вход на сайт
Логин:
Пароль:
 
Навигация по сайту
Популярные статьи

Торрент трекер | Скачать торрент | Скачать через Торрент | Скачать торрент бесплатно | Скачать торрент без регистрации Фильмы торрент скачать Догвилль / Dogville (2003) BDRip [H.265 / 1080p] [10-bit] торрент скачать бесплатно

Догвилль / Dogville (2003) BDRip [H.265 / 1080p] [10-bit] торрент скачать бесплатно

Фильмы торрент скачать
Догвилль / Dogville (2003) BDRip [H.265 / 1080p] [10-bit]Производство: Дания, Нидерланды, Швеция, Германия, Великобритания, Франция, Финляндия, Норвегия, Италия/Zentropa Entertainments, Isabella Films B.V., Something Else B.V.
Жанр: триллер, драма, детектив
Режиссер: Ларс фон Триер

Актеры
Николь Кидман, Пол Беттани, Харриет Андерссон, Патриша Кларксон, Бен Газзара, Филип Бейкер Холл, Джереми Дэвис, Хлоя Севиньи, Стеллан Скарсгард, Лорен Бэколл

Описание
Юная Грейс, сбежав от банды гангстеров, находит спасение в маленьком городке Догвилль где-то в Скалистых горах. Местные жители – один прекраснее другого – готовы ее укрыть. А взамен им совсем ничего не надо, ну, разве что помочь по дому или присмотреть за детьми. Но постепенно милый Догвилль превращается для девушки в тюрьму.


Возраст: 18+ (зрителям, достигшим 18 лет. запрещено для детей)
Рейтинг MPAA: R (лицам до 17 лет обязательно присутствие взрослого)
Продолжительность: 02: 57: 55
Качество видео: BDRip
Перевод: Дублированный
Субтитры: Русские (форсированные, полные), английские
Видео: HEVC/H.265, 1920x800, ~6719 Kbps
Аудио 1: AC3, 6 ch, 448 Kbps - Русский, дублированный
Аудио 2: AC3, 6 ch, 448 Kbps - Английский
Общее
Уникальный идентификатор : 139173646979087506531420809128005611678 (0x68B3DE9238A86EE93CFFC1A6CCB0309E)
Полное имя : R: Догвилль. 2003. 1080p. HEVC. 10bit.mkv
Формат : Matroska
Версия формата : Version 4/Version 2
Размер файла : 9, 47 Гбайт
Продолжительность : 2 ч. 57 м.
Общий поток : 7617 Кбит/сек
Дата кодирования : UTC 2020-08-20 18: 25: 40
Программа кодирования : mkvmerge v28.2.0 (\'The Awakening\') 64-bit
Библиотека кодирования : libebml v1.3.6 + libmatroska v1.4.9
Обложка : Yes
Attachments : cover.jpg
Видео
Идентификатор : 1
Формат : HEVC
Формат/Информация : High Efficiency Video Coding
Профиль формата : Main 10@L4@Main
Идентификатор кодека : V_MPEGH/ISO/HEVC
Продолжительность : 2 ч. 57 м.
Битрейт : 6719 Кбит/сек
Ширина : 1920 пикселей
Высота : 800 пикселей
Соотношение сторон : 2, 40: 1
Режим частоты кадров : Постоянный
Частота кадров : 24, 000 кадра/сек
Цветовое пространство : YUV
Субдискретизация насыщенности : 4: 2: 0
Битовая глубина : 10 бит
Бит/(Пиксели*Кадры) : 0.182
Размер потока : 8, 35 Гбайт (88%)
Библиотека кодирования : x265 3.2+35-acc5d16999e2: WindowsGCC 9.2.164 bit 10bit
Настройки программы : cpuid=1111039/frame-threads=4/numa-pools=16/wpp/no-pmode/no-pme/no-psnr/no-ssim/log-level=2/input-csp=1/input-res=1920x800/interlace=0/total-frames=0/level-idc=0/high-tier=1/uhd-bd=0/ref=4/no-allow-non-conformance/no-repeat-t_heads/annexb/no-aud/no-hrd/info/hash=0/no-temporal-layers/open-gop/min-keyint=24/keyint=250/gop-lookahead=0/bframes=8/b-adapt=2/b-pyramid/bframe-bias=0/rc-lookahead=80/lookahead-slices=4/scenecut=40/hist-scenecut=0/radl=0/no-splice/no-intra-refresh/ctu=64/min-cu-size=8/no-rect/no-amp/max-tu-size=32/tu-inter-depth=1/tu-intra-depth=1/limit-tu=0/rdoq-level=2/dynamic-rd=0.00/no-ssim-rd/signhide/no-tskip/nr-intra=0/nr-inter=0/no-constrained-intra/no-strong-intra-smoothing/max-merge=3/limit-refs=3/limit-modes/me=3/subme=5/merange=57/temporal-mvp/no-frame-dup/no-hme/weightp/no-weightb/no-analyze-src-pics/deblock=0: 0/sao/no-sao-non-deblock/rd=4/selective-sao=4/no-early-skip/rskip/no-fast-intra/no-tskip-fast/no-cu-lossless/no-b-intra/no-splitrd-skip/rdpenalty=0/psy-rd=1.30/psy-rdoq=2.00/no-rd-refine/no-lossless/cbqpoffs=0/crqpoffs=0/rc=crf/crf=18.0/qcomp=0.60/qpstep=4/stats-write=0/stats-read=0/ipratio=1.40/pbratio=1.30/aq-mode=4/aq-strength=1.10/cutree/zone-count=0/no-strict-cbr/qg-size=32/no-rc-grain/qpmax=69/qpmin=0/no-const-vbv/sar=1/overscan=0/videoformat=5/range=0/colorprim=2/transfer=2/colormatrix=2/chromaloc=0/display-window=0/cll=0, 0/min-luma=0/max-luma=1023/log2-max-poc-lsb=8/vui-timing-info/vui-hrd-info/slices=1/no-opt-qp-pps/no-opt-ref-list-length-pps/no-multi-pass-opt-rps/scenecut-bias=0.05/hist-threshold=0.01/no-opt-cu-delta-qp/no-aq-motion/no-hdr10/no-hdr10-opt/no-dhdr10-opt/no-idr-recovery-sei/analysis-reuse-level=0/analysis-save-reuse-level=0/analysis-load-reuse-level=0/scale-factor=0/refine-intra=0/refine-inter=0/refine-mv=1/refine-ctu-distortion=0/no-limit-sao/ctu-info=0/no-lowpass-dct/refine-analysis-type=0/copy-pic=1/max-ausize-factor=1.0/no-dynamic-refine/no-single-sei/no-hevc-aq/no-svt/no-field/qp-adaptation-range=1.00/no-scenecut-aware-qpconformance-window-offsets/right=0/bottom=0
Default : Да
Forced : Нет
Цветовой диапазон : Limited
Аудио #1
Идентификатор : 2
Формат : AC-3
Формат/Информация : Audio Coding 3
Идентификатор кодека : A_AC3
Продолжительность : 2 ч. 57 м.
Вид битрейта : Постоянный
Битрейт : 448 Кбит/сек
Каналы : 6 каналов
Расположение каналов : Front: L C R, Side: L R, LFE
Частота : 48, 0 КГц
Частота кадров : 31, 250 кадров/сек (1536 SPF)
Битовая глубина : 16 бит
Метод сжатия : С потерями
Размер потока : 570 Мбайт (6%)
Заголовок : Дублированный
Язык : Russian
ServiceKind/String : Complete Main
Default : Да
Forced : Нет
Аудио #2
Идентификатор : 3
Формат : AC-3
Формат/Информация : Audio Coding 3
Идентификатор кодека : A_AC3
Продолжительность : 2 ч. 57 м.
Вид битрейта : Постоянный
Битрейт : 448 Кбит/сек
Каналы : 6 каналов
Расположение каналов : Front: L C R, Side: L R, LFE
Частота : 48, 0 КГц
Частота кадров : 31, 250 кадров/сек (1536 SPF)
Битовая глубина : 16 бит
Метод сжатия : С потерями
Размер потока : 570 Мбайт (6%)
Заголовок : Английский
Язык : English
ServiceKind/String : Complete Main
Default : Нет
Forced : Нет
Текст #1
Идентификатор : 4
Формат : UTF-8
Идентификатор кодека : S_TEXT/UTF8
Идентификатор кодека/Информация : UTF-8 Plain Text
Продолжительность : 2 ч. 30 м.
Битрейт : 1 бит/сек
ElementCount : 24
Размер потока : 2, 00 Кбайт (0%)
Заголовок : Русск. форс.
Язык : Russian
Default : Да
Forced : Нет
Текст #2
Идентификатор : 5
Формат : UTF-8
Идентификатор кодека : S_TEXT/UTF8
Идентификатор кодека/Информация : UTF-8 Plain Text
Продолжительность : 2 ч. 52 м.
Битрейт : 134 бит/сек
ElementCount : 2215
Размер потока : 170 Кбайт (0%)
Заголовок : Русск. полные
Язык : Russian
Default : Нет
Forced : Нет
Текст #3
Идентификатор : 6
Формат : UTF-8
Идентификатор кодека : S_TEXT/UTF8
Идентификатор кодека/Информация : UTF-8 Plain Text
Продолжительность : 2 ч. 57 м.
Битрейт : 79 бит/сек
ElementCount : 2613
Размер потока : 103 Кбайт (0%)
Язык : English
Default : Нет
Forced : Нет
Меню
00: 00: 00.000 : : Prologue
00: 09: 13.958 : : Tom hears gunshots and meets Grace
00: 18: 55.167 : : Tom introduces Grace
00: 28: 32.292 : : Grace tries to help the townspeople
00: 35: 27.333 : : Grace\'s first day of hard work
00: 45: 41.125 : : Grace interferes with the townspeople\'s secrets
00: 51: 05.750 : : The townspeople are deciding Grace\'s future
00: 57: 36.625 : : Grace spreads joy in Dogville
01: 01: 08.458 : : Law enforcement comes to Dogville
01: 04: 13.708 : : The day of celebration
01: 12: 49.750 : : Grace becomes more costly for the townspeople
01: 28: 31.958 : : Dogville\'s true face
01: 32: 05.167 : : Rape
01: 37: 20.000 : : Everybody turns against Grace
01: 48: 47.747 : : Grace\'s escape from Dogville
02: 03: 10.792 : : Exploitation
02: 12: 36.667 : : Tom wants to make love to Grace
02: 30: 19.167 : : The gangsters come to Dogville
02: 39: 51.792 : : The final illustration
02: 52: 37.125 : : Credits
 
Уважаемый посетитель, Вы зашли на сайт как незарегистрированный пользователь. Мы рекомендуем Вам зарегистрироваться либо зайти на сайт под своим именем.

Другие новости по теме:

  • Догвилль / Dogville (2003) DVDRip
  • Догвилль / Dogville (2003) WEB-DLRip [H.264 / 1080p]


  • Информация
    Посетители, находящиеся в группе Гости, не могут оставлять комментарии в данной новости.
    Главная страница | Регистрация | Добавить новость | Новое на сайте Copyright © 2019. bolt.mmix.club All Rights Reserved