Подписывайся на наш канал в Telegram https://t.me/torrentok и получи доступ к торрентам без ограничений!
. bolt.mmix.club
Авторские права
con...@...Показать
Вход на сайт
Логин:
Пароль:
 
Навигация по сайту
Популярные статьи

Торрент трекер | Скачать торрент | Скачать через Торрент | Скачать торрент бесплатно | Скачать торрент без регистрации Фильмы торрент скачать Опасный элемент / Radioactive (2019) WEB-DL [H.264 / 1080p-LQ] [MVO] торрент скачать бесплатно

Опасный элемент / Radioactive (2019) WEB-DL [H.264 / 1080p-LQ] [MVO] торрент скачать бесплатно

Фильмы торрент скачать
Опасный элемент / Radioactive (2019) WEB-DL [H.264 / 1080p-LQ] [MVO]Производство: Великобритания, Венгрия/Working Title Films, Studio Canal, Shoebox Films, Pioneer Stilking Films
Жанр: биография, драма, мелодрама
Режиссер: Маржан Сатрапи

Актеры
Розамунд Пайк, Сэм Райли, Кара Боссом, Анайрин Барнард, Саймон Расселл Бил, Тим Вудворд, Джонатан Арис, Мирьям Новак, Кори Джонсон, Петер Фанчикаи

Описание

Одержимые страстью к исследованиям, они навсегда изменили мир. Эта история о том, как великие открытия могут привести к страшным катастрофам. Пьер и Мария Кюри. Любовники, первооткрыватели, гении.


Возраст: 16+ (зрителям, достигшим 16 лет)
Рейтинг MPAA: PG-13 (детям до 13 лет просмотр нежелателен)
Дата мировой премьеры: 6 сентября 2019
Дата российской премьеры: HHA
Продолжительность: 01: 49: 45
Качество видео: WEB-DL
Перевод: Многоголосый профессиональный (Pazl Voice)
Субтитры: английские
Видео: AVC/H.264, 1920x800, ~7035 Kbps
Аудио 1: AC3, 6 ch, 448 Kbps, русский (Pazl Voice)
Аудио 2: Е-AC3, 6 ch, 640 Kbps, английский (оригинал)
Общее
Уникальный идентификатор : 200729421469949612012972484568466573351 (0x97031492011FC8EFB8BF55B4312FC827)
Полное имя : E: DownloadsRadioactive.2019.WEB-DL.1080p.mkv
Формат : Matroska
Версия формата : Version 4
Размер файла : 6, 23 Гбайт
Продолжительность : 1 ч. 49 м.
Общий поток : 8 125 Кбит/сек
Дата кодирования : UTC 2020-08-19 09: 52: 31
Программа кодирования : mkvmerge v7.1.0 (\'Good Love\') 64bit built on Jul 27 2014 13: 06: 55
Библиотека кодирования : libebml v1.3.0 + libmatroska v1.4.1
Видео
Идентификатор : 1
Формат : AVC
Формат/Информация : Advanced Video Codec
Профиль формата : High@L4
Настройки формата : CABAC/4 Ref Frames
Параметр CABAC формата : Да
Параметр RefFrames формата : 4 кадра
Идентификатор кодека : V_MPEG4/ISO/AVC
Продолжительность : 1 ч. 49 м.
Вид битрейта : Постоянный
Битрейт : 7 035 Кбит/сек
Номинальный битрейт : 10 000 Кбит/сек
Ширина : 1 920 пикселей
Высота : 800 пикселей
Соотношение сторон : 2, 40: 1
Режим частоты кадров : Постоянный
Частота кадров : 23, 976 (24000/1001) кадра/сек
Цветовое пространство : YUV
Субдискретизация насыщенности : 4: 2: 0
Битовая глубина : 8 бит
Тип развёртки : Прогрессивная
Бит/(Пиксели*Кадры) : 0.191
Размер потока : 5, 39 Гбайт (87%)
Язык : English
Default : Да
Forced : Нет
Цветовой диапазон : Limited
Основные цвета : BT.709
Характеристики трансфера : BT.709
Коэффициенты матрицы : BT.709
Аудио #1
Идентификатор : 2
Формат : AC-3
Формат/Информация : Audio Coding 3
Коммерческое название : Dolby Digital
Идентификатор кодека : A_AC3
Продолжительность : 1 ч. 49 м.
Вид битрейта : Постоянный
Битрейт : 448 Кбит/сек
Каналы : 6 каналов
Channel layout : L R C LFE Ls Rs
Частота : 48, 0 КГц
Частота кадров : 31, 250 кадров/сек (1536 SPF)
Метод сжатия : С потерями
Размер потока : 352 Мбайт (6%)
Заголовок : MVO | Pazl Voice
Язык : Russian
Service kind : Complete Main
Default : Да
Forced : Нет
Аудио #2
Идентификатор : 3
Формат : E-AC-3
Формат/Информация : Enhanced AC-3
Коммерческое название : Dolby Digital Plus
Идентификатор кодека : A_EAC3
Продолжительность : 1 ч. 49 м.
Вид битрейта : Постоянный
Битрейт : 640 Кбит/сек
Каналы : 6 каналов
Channel layout : L R C LFE Ls Rs
Частота : 48, 0 КГц
Частота кадров : 31, 250 кадров/сек (1536 SPF)
Метод сжатия : С потерями
Размер потока : 502 Мбайт (8%)
Язык : English
Service kind : Complete Main
Default : Нет
Forced : Нет
Текст
Идентификатор : 4
Формат : UTF-8
Идентификатор кодека : S_TEXT/UTF8
Идентификатор кодека/Информация : UTF-8 Plain Text
Продолжительность : 1 ч. 40 м.
Битрейт : 57 бит/сек
Count of elements : 1245
Размер потока : 42, 2 Кбайт (0%)
Язык : English
Default : Нет
Forced : Нет

Скриншоты для ознакомления



Все одноименные релизы в Клубе
Время раздачи: 24/7 (мультитрекерная раздача)
 
Уважаемый посетитель, Вы зашли на сайт как незарегистрированный пользователь. Мы рекомендуем Вам зарегистрироваться либо зайти на сайт под своим именем.

Другие новости по теме:

  • Опасный Элемент / The Danger Element (2017) WEB-DLRip [MVO] [AD]
  • Опасный элемент / Radioactive (2019) WEBRip [H.264 / 1080p-LQ] MVO [AD]
  • Опасный элемент / Radioactive (2019) WEB-DL [H.265 / 2160p] [4K, HDR, 10-bit] [MVO]


  • Информация
    Посетители, находящиеся в группе Гости, не могут оставлять комментарии в данной новости.
    Главная страница | Регистрация | Добавить новость | Новое на сайте Copyright © 2019. bolt.mmix.club All Rights Reserved