Подписывайся на наш канал в Telegram https://t.me/torrentok и получи доступ к торрентам без ограничений!
. bolt.mmix.club
Авторские права
con...@...Показать
Вход на сайт
Логин:
Пароль:
 
Навигация по сайту
Популярные статьи

Торрент трекер | Скачать торрент | Скачать через Торрент | Скачать торрент бесплатно | Скачать торрент без регистрации Фильмы торрент скачать Опасный элемент / Radioactive (2019) WEB-DL [H.265 / 2160p] [4K, HDR, 10-bit] [MVO] торрент скачать бесплатно

Опасный элемент / Radioactive (2019) WEB-DL [H.265 / 2160p] [4K, HDR, 10-bit] [MVO] торрент скачать бесплатно

Фильмы торрент скачать
Опасный элемент / Radioactive (2019) WEB-DL [H.265 / 2160p] [4K, HDR, 10-bit] [MVO]Производство: Великобритания, Венгрия/Working Title Films, Studio Canal, Shoebox Films, Pioneer Stilking Films
Жанр: Биография, драма, мелодрама
Режиссер: Маржан Сатрапи
Продюсер: Тим Беван, Эрик Феллнер, Пол Уэбстер

Актеры
Розамунд Пайк, Сэм Райли, Иветта Фойер, Мирьям Новак, Ральф Белкин, Саймон Расселл Бил, Шан Брук, Faye Bradbrook, Дрю Джейкоби, Анайрин Барнард

Описание
Одержимые страстью к исследованиям, они навсегда изменили мир. Эта история о том, как великие открытия могут привести к страшным катастрофам. Пьер и Мария Кюри. Любовники, первооткрыватели, гении.


Возраст: 16+ Зрителям, достигшим 16 лет
Рейтинг MPAA: PG-13 Детям до 13 просмотр не желателен
Дата мировой премьеры: 6 сентября 2019
Релиз от: NNMClub
Продолжительность: 01: 49: 45
Качество видео: WEB-DL 1080p
Перевод: Профессиональный (многоголосый закадровый)(Pazl Voice)
Субтитры: Английские (SDH)
Видео: HEVC/H.265, 3840x1600, ~14, 6 Mbps
Аудио 1 : AC-3, 6 ch, 448 Kbps | Русский
Аудио 2 : E-AC-3, 6 ch, 640 Kbps | Английский
General
Unique ID : 196696146471922486673926220813258877509 (0x93FA4CC28C98E5589729C7C901826A45)
Complete name : /Volumes/Promise Pegasus/Radioactive.WEB-DL.2160p.HDR.mkv
Format : Matroska
Format version : Version 4
File size : 12.0 GiB
Duration : 1h 49mn
Overall bit rate : 15.7 Mbps
Movie name : Radioactive WEB-DL 2160p HDR
Encoded date : UTC 2020-08-19 23: 44: 27
Writing application : mkvmerge v49.0.0 (\'Sick Of Losing Soulmates\') 64-bit
Writing library : libebml v1.4.0 + libmatroska v1.6.1
Attachments : poster.jpg
Video
ID : 1
Format : HEVC
Format/Info : High Efficiency Video Coding
Format profile : Main 10@L5@Main
HDR format : SMPTE ST 2094 App 4, Version 0, HDR10 compatible
Codec ID : V_MPEGH/ISO/HEVC
Duration : 1h 49mn
Bit rate : 14.6 Mbps
Width : 3 840 pixels
Height : 1 600 pixels
Display aspect ratio : 2.40: 1
Frame rate mode : Constant
Frame rate : 23.976 (24000/1001) fps
Standard : NTSC
Color space : YUV
Chroma subsampling : 4: 2: 0 (Type 2)
Bit depth : 10 bits
Bits/(Pixel*Frame) : 0.099
Stream size : 11.2 GiB (93%)
Language : English
Default : Yes
Forced : No
Color range : Limited
Color primaries : BT.2020
Transfer characteristics : PQ
Matrix coefficients : BT.2020 non-constant
Mastering display color primaries : Display P3
Mastering display luminance : min: 0.0001 cd/m2, max: 1000 cd/m2
Maximum Content Light Level : 966 cd/m2
Maximum Frame-Average Light Level : 383 cd/m2
Audio #1
ID : 2
Format : AC-3
Format/Info : Audio Coding 3
Commercial name : Dolby Digital
Codec ID : A_AC3
Duration : 1h 49mn
Bit rate mode : Constant
Bit rate : 448 Kbps
Channel(s) : 6 channels
Channel layout : L R C LFE Ls Rs
Sampling rate : 48.0 KHz
Frame rate : 31.250 fps (1536 SPF)
Compression mode : Lossy
Stream size : 352 MiB (3%)
Title : Russian MVO Pazl Voice
Language : Russian
Service kind : Complete Main
Default : Yes
Forced : No
Audio #2
ID : 3
Format : E-AC-3
Format/Info : Enhanced AC-3
Commercial name : Dolby Digital Plus
Codec ID : A_EAC3
Duration : 1h 49mn
Bit rate mode : Constant
Bit rate : 640 Kbps
Channel(s) : 6 channels
Channel layout : L R C LFE Ls Rs
Sampling rate : 48.0 KHz
Frame rate : 31.250 fps (1536 SPF)
Compression mode : Lossy
Stream size : 502 MiB (4%)
Title : English Original
Language : English
Service kind : Complete Main
Default : No
Forced : No
Text
ID : 4
Format : UTF-8
Codec ID : S_TEXT/UTF8
Codec ID/Info : UTF-8 Plain Text
Duration : 1h 40mn
Bit rate : 57 bps
Count of elements : 1245
Stream size : 42.2 KiB (0%)
Title : English SDH
Language : English
Default : No
Forced : No

Скриншоты для ознакомления



Все одноименные релизы в Клубе
Время раздачи: 24/7 (круглосуточно) (до появления первых 3-5 скачавших)
 
Уважаемый посетитель, Вы зашли на сайт как незарегистрированный пользователь. Мы рекомендуем Вам зарегистрироваться либо зайти на сайт под своим именем.

Другие новости по теме:

  • Опасный Элемент / The Danger Element (2017) WEB-DLRip [MVO] [AD]
  • Опасный элемент / Radioactive (2019) WEBRip [H.264 / 1080p-LQ] MVO [AD]
  • Опасный элемент / Radioactive (2019) WEB-DL [H.264 / 1080p-LQ] [MVO]


  • Информация
    Посетители, находящиеся в группе Гости, не могут оставлять комментарии в данной новости.
    Главная страница | Регистрация | Добавить новость | Новое на сайте Copyright © 2019. bolt.mmix.club All Rights Reserved