Подписывайся на наш канал в Telegram https://t.me/torrentok и получи доступ к торрентам без ограничений!
. bolt.mmix.club
Авторские права
con...@...Показать
Вход на сайт
Логин:
Пароль:
 
Навигация по сайту
Популярные статьи

Торрент трекер | Скачать торрент | Скачать через Торрент | Скачать торрент бесплатно | Скачать торрент без регистрации Фильмы торрент скачать Морские паразиты / Sea Fever (2019) BDRemux [H.264 / 1080p] торрент скачать бесплатно

Морские паразиты / Sea Fever (2019) BDRemux [H.264 / 1080p] торрент скачать бесплатно

Фильмы торрент скачать
Морские паразиты / Sea Fever (2019) BDRemux [H.264 / 1080p]Производство: Ирландия, США, Великобритания, Швеция, Бельгия, Bright Moving Pictures, Creativity Capital, Fantastic Films, Flexibon Films, Makar Productions
Жанр: Ужасы, фантастика
Режиссер: Ниса Хардиман
Продюсер: Брендан Маккарти, Джон МакДоннел, Шакед Беренсон

Актеры
Гермиона Корфилд, Даг Малмберг, Джек Хикки, Олуэн Фуэре, Дюгрей Скотт, Конни Нильсен, Ардалан Эсмаили, Эли Буаказе

Описание
Ирландия. Студентка Шеворн - настоящий интроверт. Девушка изучает морскую биологию, и ей интереснее смотреть в микроскоп, чем общаться с сокурсниками. Она отправляется проходить практику на небольшом рыболовецком судне, что сулит новые впечатления и богатый материал для научных исследований, хотя команда и не в восторге от пассажирки, так как её рыжие волосы являются плохой приметой. Но тем не менее, капитан решает рискнуть и заплывает в запретную зону, где корабль внезапно застревает. Выясняется, что к бортам судна присосались неизвестные науке морские существа, и они явно способны менять структуру и растворять всё, чего касаются.


Возраст: 18+ (зрителям, достигшим 18 лет. запрещено для детей)
Дата мировой премьеры: 5 сентября 2019
Дата российской премьеры: 1 августа 2020, Кинологистика
Релиз от: NNMClub
Продолжительность: 01: 34: 13
Качество видео: BDRemux 1080p
Перевод: Дублированный, Авторский
Субтитры: Русские (Full, SDH), Английские (Full, SDH)
Видео: AVC/H.264, 1920x1080, 27.8 Mb/s, 23.976 FPS
Аудио 1 : AC-3, 6 ch, 384 kb/s | Русский Dub iTunes
Аудио 2 : AC-3, 6 ch, 448 kb/s | Русский AVO C.Визгунов
Аудио 3 : DTS-HD MA, 6 ch, 2093 kb/s | Английский
General
Unique ID : 145873344014110774829008905863135438544 (0x6DBE2F234E2EAF020729FD39DD2F26D0)
Complete name : /Volumes/Promise Pegasus/Sea.Fever.BDRemux.1080p.pk.mkv
Format : Matroska
Format version : Version 4
File size : 20.2 GiB
Duration : 1 h 34 min
Overall bit rate mode : Variable
Overall bit rate : 30.8 Mb/s
Movie name : Sea Fever BDRemux 1080p pk
Encoded date : UTC 2020-08-20 11: 36: 27
Writing application : mkvmerge v49.0.0 (\'Sick Of Losing Soulmates\') 64-bit
Writing library : libebml v1.4.0 + libmatroska v1.6.1
Video
ID : 1
Format : AVC
Format/Info : Advanced Video Codec
Format profile : High@L4.1
Format settings : CABAC/4 Ref Frames
Format settings, CABAC : Yes
Format settings, Reference frames : 4 frames
Codec ID : V_MPEG4/ISO/AVC
Duration : 1 h 34 min
Bit rate mode : Constant
Bit rate : 27.8 Mb/s
Nominal bit rate : 30.0 Mb/s
Width : 1 920 pixels
Height : 1 080 pixels
Display aspect ratio : 16: 9
Frame rate mode : Constant
Frame rate : 23.976 (24000/1001) FPS
Standard : NTSC
Color space : YUV
Chroma subsampling : 4: 2: 0
Bit depth : 8 bits
Scan type : Progressive
Bits/(Pixel*Frame) : 0.560
Stream size : 18.3 GiB (90%)
Language : English
Default : Yes
Forced : No
Color range : Limited
Color primaries : BT.709
Transfer characteristics : BT.709
Matrix coefficients : BT.709
Audio #1
ID : 2
Format : AC-3
Format/Info : Audio Coding 3
Commercial name : Dolby Digital
Codec ID : A_AC3
Duration : 1 h 34 min
Bit rate mode : Constant
Bit rate : 384 kb/s
Channel(s) : 6 channels
Channel layout : L R C LFE Ls Rs
Sampling rate : 48.0 kHz
Frame rate : 31.250 FPS (1536 SPF)
Compression mode : Lossy
Stream size : 259 MiB (1%)
Title : Russian Dub iTunes
Language : Russian
Service kind : Complete Main
Default : Yes
Forced : No
Audio #2
ID : 3
Format : AC-3
Format/Info : Audio Coding 3
Commercial name : Dolby Digital
Codec ID : A_AC3
Duration : 1 h 34 min
Bit rate mode : Constant
Bit rate : 448 kb/s
Channel(s) : 6 channels
Channel layout : L R C LFE Ls Rs
Sampling rate : 48.0 kHz
Frame rate : 31.250 FPS (1536 SPF)
Compression mode : Lossy
Stream size : 302 MiB (1%)
Title : Russian AVO Vizgunov
Language : Russian
Service kind : Complete Main
Default : No
Forced : No
Audio #3
ID : 4
Format : DTS XLL
Format/Info : Digital Theater Systems
Commercial name : DTS-HD Master Audio
Codec ID : A_DTS
Duration : 1 h 34 min
Bit rate mode : Variable
Bit rate : 2 093 kb/s
Channel(s) : 6 channels
Channel layout : C L R Ls Rs LFE
Sampling rate : 48.0 kHz
Frame rate : 93.750 FPS (512 SPF)
Bit depth : 16 bits
Compression mode : Lossless
Stream size : 1.38 GiB (7%)
Title : English Original
Language : English
Default : No
Forced : No
Text #1
ID : 5
Format : UTF-8
Codec ID : S_TEXT/UTF8
Codec ID/Info : UTF-8 Plain Text
Duration : 1 h 26 min
Bit rate : 68 b/s
Count of elements : 879
Stream size : 43.9 KiB (0%)
Title : Russian Full (Khotya-303)
Language : Russian
Default : No
Forced : No
Text #2
ID : 6
Format : UTF-8
Codec ID : S_TEXT/UTF8
Codec ID/Info : UTF-8 Plain Text
Duration : 1 h 28 min
Bit rate : 79 b/s
Count of elements : 1133
Stream size : 51.5 KiB (0%)
Title : Russian SDH
Language : Russian
Default : No
Forced : No
Text #3
ID : 7
Format : UTF-8
Codec ID : S_TEXT/UTF8
Codec ID/Info : UTF-8 Plain Text
Duration : 1 h 34 min
Bit rate : 37 b/s
Count of elements : 929
Stream size : 25.7 KiB (0%)
Title : English full
Language : English
Default : No
Forced : No
Text #4
ID : 8
Format : UTF-8
Codec ID : S_TEXT/UTF8
Codec ID/Info : UTF-8 Plain Text
Duration : 1 h 34 min
Bit rate : 44 b/s
Count of elements : 1331
Stream size : 30.5 KiB (0%)
Title : English SDH
Language : English
Default : No
Forced : No
Menu
00: 00: 00.000 : : Chapter 01
00: 13: 49.620 : : Chapter 02
00: 33: 08.320 : : Chapter 03
00: 52: 35.110 : : Chapter 04
01: 11: 14.729 : : Chapter 05
01: 26: 41.571 : : Chapter 06

Скриншоты для ознакомления



Все одноименные релизы в Клубе
Время раздачи: 24/7 (круглосуточно) (до появления первых 3-5 скачавших)
 
Уважаемый посетитель, Вы зашли на сайт как незарегистрированный пользователь. Мы рекомендуем Вам зарегистрироваться либо зайти на сайт под своим именем.

Другие новости по теме:

  • Морские паразиты / Sea Fever (2019) WEB-DLRip [H.264 / 1080p-LQ] [MVO, AD]
  • Морские паразиты / Sea Fever (2019) BDRip [H.264 / 1080p] [DVO] [PR]
  • Морские паразиты / Sea Fever (2019) BDRip [H.264 / 720p] [PR]
  • Морские паразиты / Sea Fever (2019) BDRip [H.264 / 1080p] [PR]
  • Морские паразиты / Sea Fever (2019) BDRip [H.264 / 1080p]
  • Морские паразиты / Sea Fever (2019) BDRip [H.264 / 720p]
  • Морские паразиты / Sea Fever (2019) BDRip [1080p] ATV3
  • Морские паразиты / Sea Fever (2019) BDRip [H.265 / 1080p] [10-bit]


  • Информация
    Посетители, находящиеся в группе Гости, не могут оставлять комментарии в данной новости.
    Главная страница | Регистрация | Добавить новость | Новое на сайте Copyright © 2019. bolt.mmix.club All Rights Reserved