Подписывайся на наш канал в Telegram https://t.me/torrentok и получи доступ к торрентам без ограничений!
. bolt.mmix.club
Авторские права
con...@...Показать
Вход на сайт
Логин:
Пароль:
 
Навигация по сайту
Популярные статьи

Торрент трекер | Скачать торрент | Скачать через Торрент | Скачать торрент бесплатно | Скачать торрент без регистрации Фильмы торрент скачать Банан посреди ночи: Правдивая история / Konna yofuke ni banana kayo: Kanashiki jitsuwa / A Banana At This Time of Night (2018) HDRip [VO] торрент скачать бесплатно

Банан посреди ночи: Правдивая история / Konna yofuke ni banana kayo: Kanashiki jitsuwa / A Banana At This Time of Night (2018) HDRip [VO] торрент скачать бесплатно

Фильмы торрент скачать
Банан посреди ночи: Правдивая история / Konna yofuke ni banana kayo: Kanashiki jitsuwa / A Banana At This Time of Night (2018) HDRip [VO]Производство: Япония, Amuse, Bungeishunju, Chukyo TV Broadcasting Company (CTV)
Жанр: Комедия, мелодрама, драма
Режиссер: Тэцу Маэда

Актеры
Ё Оидзуми, Мицуки Такахата, Харума Миура, Масато Хагивара, Макико Ватанабэ, Сёхэй Уно, Ханаэ Кан, Тиэ Аядо, Раита Рю

Описание

34-летний Ясуаки Сикано страдает мышечной дистрофией, из-за чего прикован к инвалидной коляске. Несмотря на это, парень ведёт себя эксцентрично: убегает из больницы или требует принести ему банан посреди ночи. Но его беззаботная жизнь заканчивается, когда новенькая девушка-волонтёр Мисаки высказывает эгоистичному Сикано всё, что о нём думает. С тех пор Сикано начинает испытывать к ней романтические чувства, но, к сожалению, у Мисаки есть молодой человек.


Релиз от: Rip by vitolinform
Продолжительность: 02: 00: 14
Качество видео: HDRip
Перевод: Одноголосый любительский (RiN)
Субтитры: отсутствуют
Видео: Xvid, 720x384, ~1543 kbps
Аудио: AC3, 2 ch, 192 Кbps | Русский (VO, RiN)
Общее
Полное имя : C: Banan.posredi.nochi.Moya.istoriya.2018.HDRip.avi
Формат : AVI
Формат/Информация : Audio Video Interleave
Размер файла : 1, 46 Гбайт
Продолжительность : 2 ч. 0 м.
Общий поток : 1 744 Кбит/сек
Название фильма : Банан посреди ночи: Моя история/Konna yofuke ni banana kayo: Kanashiki jitsuwa/A Banana? At This Time of Night? (2018) HDRip
Режиссёр : Тэцу Маэда/Tetsu Maeda
Жанр : Комедия, мелодрама, драма
Программа кодирования : VirtualDubMod 1.5.10.2 (build 2542/release)
Формат оригинала/Имя : Художественный фильм
Авторское право : Япония, Amuse, Bungeishunju, Chukyo TV Broadcasting Company (CTV)
Примечание : Rip by vitolinform
Видео
Идентификатор : 0
Формат : MPEG-4 Visual
Профиль формата : Advanced Simple@L5
Настройки формата : BVOP1
Параметр BVOP формата : 1
Параметр QPel формата : Нет
Параметр GMC формата : Без точки перехода
Параметр матрицы формата : Default (MPEG)
Идентификатор кодека : XVID
Идентификатор кодека/Подсказка : XviD
Продолжительность : 2 ч. 0 м.
Битрейт : 1 543 Кбит/сек
Ширина : 720 пикселей
Высота : 384 пикселя
Соотношение сторон : 1, 85: 1
Частота кадров : 23, 976 (24000/1001) кадра/сек
Цветовое пространство : YUV
Субдискретизация насыщенности : 4: 2: 0
Битовая глубина : 8 бит
Тип развёртки : Прогрессивная
Метод сжатия : С потерями
Бит/(Пиксели*Кадры) : 0.233
Размер потока : 1, 30 Гбайт (88%)
Библиотека кодирования : XviD 67
Аудио
Идентификатор : 1
Формат : AC-3
Формат/Информация : Audio Coding 3
Коммерческое название : Dolby Digital
Идентификатор кодека : 2000
Продолжительность : 2 ч. 0 м.
Вид битрейта : Постоянный
Битрейт : 192 Кбит/сек
Каналы : 2 канала
Channel layout : L R
Частота : 48, 0 КГц
Частота кадров : 31, 250 кадров/сек (1536 SPF)
Метод сжатия : С потерями
Размер потока : 165 Мбайт (11%)
Выравнивание : Разделение по промежуткам
Продолжительность промежутка : 42 мс. (1, 00 видеокадр)
Время предзагрузки промежутка : 500 мс.
Service kind : Complete Main

Скриншоты для ознакомления



Все одноименные релизы в Клубе
Время раздачи: 24/7 (мультитрекерная раздача) (до появления первых 3-5 скачавших)
 
Уважаемый посетитель, Вы зашли на сайт как незарегистрированный пользователь. Мы рекомендуем Вам зарегистрироваться либо зайти на сайт под своим именем.

Другие новости по теме:



Информация
Посетители, находящиеся в группе Гости, не могут оставлять комментарии в данной новости.
Главная страница | Регистрация | Добавить новость | Новое на сайте Copyright © 2019. bolt.mmix.club All Rights Reserved