Подписывайся на наш канал в Telegram https://t.me/torrentok и получи доступ к торрентам без ограничений!
. bolt.mmix.club
Авторские права
con...@...Показать
Вход на сайт
Логин:
Пароль:
 
Навигация по сайту
Популярные статьи

Торрент трекер | Скачать торрент | Скачать через Торрент | Скачать торрент бесплатно | Скачать торрент без регистрации Фильмы торрент скачать Парень из Квантунга / Kid From Kwangtung / Guang Dong liang zai yu (1982) WEB-DL [H.264 / 1080p-LQ] [AVO] торрент скачать бесплатно

Парень из Квантунга / Kid From Kwangtung / Guang Dong liang zai yu (1982) WEB-DL [H.264 / 1080p-LQ] [AVO] торрент скачать бесплатно

Фильмы торрент скачать
Парень из Квантунга / Kid From Kwangtung / Guang Dong liang zai yu (1982) WEB-DL [H.264 / 1080p-LQ] [AVO]Производство: Гонконг, Shaw Brothers
Жанр: Боевик, комедия
Режиссер: Хсю Хсиа

Актеры
Вонг Ю, Юэнь Так, Шарон Йеунг, Чианг Кам, Джанг Хванг Ли, Кван Хой Сан, Йен Ши Кван, Кван Фенг, Лау Кар Юнг, Хо Пак Квонг, Чеунг Чок Чоу

Описание

Школьный учитель является одним из лидеров повстанцев против режима Цин. У него учатся два ученика, у которых дядя и отец владеют школами по боевым искусствам. Соперничество идёт не только среди молодого поколения, но и старшее старается вовсю. Так продолжается пока в городе не появляется представитель династии Цин, который приехал уничтожить последние связи повстанцев.


Релиз от: vitolinform
Продолжительность: 01: 34: 45
Качество видео: WEB-DL
Перевод: Авторский (Сергей Кузнецов)
Субтитры: Английские, китайские
Видео: AVC/H.264, 1920x816, ~10000 kbps
Аудио 1: AC3, 2 ch, 224 Кbps | Русский (AVO, C. Кузнецов)
Аудио 2: Е-AC3, 2 ch, 224 Кbps | Китайский
Аудио 3: AАC, 2 ch, 102 Кbps | Китайский
Общее
Уникальный идентификатор : 59882836737340992298126014268050573317 (0x2D0D03CCBBAEABD58F315A3D66310805)
Полное имя : C: Kid.From.Kwangtung.1982.1080p.AMZN.WEB-DL.mkv
Формат : Matroska
Версия формата : Version 4
Размер файла : 6, 68 Гбайт
Продолжительность : 1 ч. 34 м.
Общий поток : 10, 1 Мбит/сек
Название фильма : Парень из Квантунга/Guang Dong liang zai yu/Kid From Kwangtung (1982) WEB-DL (1080p)
Дата кодирования : UTC 2020-08-19 07: 29: 14
Программа кодирования : mkvmerge v42.0.0 (\'Overtime\') 32-bit
Библиотека кодирования : libebml v1.3.10 + libmatroska v1.5.2
Attachments : KidFrom.jpg
Видео
Идентификатор : 1
Формат : AVC
Формат/Информация : Advanced Video Codec
Профиль формата : High@L4
Настройки формата : CABAC/4 Ref Frames
Параметр CABAC формата : Да
Параметр RefFrames формата : 4 кадра
Идентификатор кодека : V_MPEG4/ISO/AVC
Продолжительность : 1 ч. 34 м.
Вид битрейта : Постоянный
Битрейт : 10 000 Кбит/сек
Ширина : 1 920 пикселей
Высота : 816 пикселей
Соотношение сторон : 2, 35: 1
Режим частоты кадров : Постоянный
Частота кадров : 25, 000 кадров/сек
Цветовое пространство : YUV
Субдискретизация насыщенности : 4: 2: 0
Битовая глубина : 8 бит
Тип развёртки : Прогрессивная
Бит/(Пиксели*Кадры) : 0.255
Размер потока : 6, 31 Гбайт (95%)
Заголовок : Парень из Квантунга/Guang Dong liang zai yu/Kid From Kwangtung (1982) WEB-DL (1080p)
Язык : Chinese
Default : Да
Forced : Да
Цветовой диапазон : Limited
Основные цвета : BT.709
Характеристики трансфера : BT.709
Коэффициенты матрицы : BT.709
Аудио #1
Идентификатор : 2
Формат : AC-3
Формат/Информация : Audio Coding 3
Коммерческое название : Dolby Digital
Идентификатор кодека : A_AC3
Продолжительность : 1 ч. 34 м.
Вид битрейта : Постоянный
Битрейт : 224 Кбит/сек
Каналы : 2 канала
Channel layout : L R
Частота : 48, 0 КГц
Частота кадров : 31, 250 кадров/сек (1536 SPF)
Метод сжатия : С потерями
Размер потока : 152 Мбайт (2%)
Заголовок : AVO Сергей Кузнецов
Язык : Russian
Service kind : Complete Main
Default : Да
Forced : Да
Аудио #2
Идентификатор : 3
Формат : E-AC-3
Формат/Информация : Enhanced AC-3
Коммерческое название : Dolby Digital Plus
Идентификатор кодека : A_EAC3
Продолжительность : 1 ч. 34 м.
Вид битрейта : Постоянный
Битрейт : 224 Кбит/сек
Каналы : 2 канала
Channel layout : L R
Частота : 48, 0 КГц
Частота кадров : 31, 250 кадров/сек (1536 SPF)
Метод сжатия : С потерями
Размер потока : 152 Мбайт (2%)
Заголовок : Cantonese
Язык : Chinese
Service kind : Complete Main
Default : Нет
Forced : Нет
Аудио #3
Идентификатор : 4
Формат : AAC LC
Формат/Информация : Advanced Audio Codec Low Complexity
Идентификатор кодека : A_AAC-2
Продолжительность : 1 ч. 34 м.
Битрейт : 102 Кбит/сек
Каналы : 2 канала
Channel layout : L R
Частота : 48, 0 КГц
Частота кадров : 46, 875 кадров/сек (1024 SPF)
Метод сжатия : С потерями
Размер потока : 69, 0 Мбайт (1%)
Заголовок : Cantonese
Язык : Chinese
Default : Нет
Forced : Нет
Текст #1
Идентификатор : 5
Формат : UTF-8
Идентификатор кодека : S_TEXT/UTF8
Идентификатор кодека/Информация : UTF-8 Plain Text
Продолжительность : 1 ч. 32 м.
Битрейт : 33 бит/сек
Count of elements : 1004
Размер потока : 22, 8 Кбайт (0%)
Заголовок : English
Язык : English
Default : Нет
Forced : Нет
Текст #2
Идентификатор : 6
Формат : UTF-8
Идентификатор кодека : S_TEXT/UTF8
Идентификатор кодека/Информация : UTF-8 Plain Text
Продолжительность : 1 ч. 32 м.
Битрейт : 33 бит/сек
Count of elements : 1004
Размер потока : 22, 8 Кбайт (0%)
Заголовок : English CC
Язык : English
Default : Нет
Forced : Нет
Текст #3
Идентификатор : 7
Формат : UTF-8
Идентификатор кодека : S_TEXT/UTF8
Идентификатор кодека/Информация : UTF-8 Plain Text
Продолжительность : 1 ч. 34 м.
Битрейт : 31 бит/сек
Count of elements : 1007
Размер потока : 21, 8 Кбайт (0%)
Заголовок : Simplified
Язык : Chinese
Default : Нет
Forced : Нет
Текст #4
Идентификатор : 8
Формат : UTF-8
Идентификатор кодека : S_TEXT/UTF8
Идентификатор кодека/Информация : UTF-8 Plain Text
Продолжительность : 1 ч. 32 м.
Битрейт : 31 бит/сек
Count of elements : 1002
Размер потока : 21, 7 Кбайт (0%)
Заголовок : Traditional
Язык : Chinese
Default : Нет
Forced : Нет
Меню
00: 00: 00.000 : en: 1
00: 09: 40.000 : en: 2
00: 23: 25.000 : en: 3
00: 35: 23.000 : en: 4
00: 47: 33.000 : en: 5
01: 01: 08.000 : en: 6
01: 11: 13.000 : en: 7
01: 23: 56.000 : en: 8
01: 34: 28.000 : en: 9

Скриншоты для ознакомления



Все одноименные релизы в Клубе
Время раздачи: 24/7 (мультитрекерная раздача) (до появления первых 3-5 скачавших)
 
Уважаемый посетитель, Вы зашли на сайт как незарегистрированный пользователь. Мы рекомендуем Вам зарегистрироваться либо зайти на сайт под своим именем.

Другие новости по теме:

  • Парень из Квантунга / Guang Dong liang zai yu / Kid From Kwangtung (1982) DVDRip [AVO]


  • Информация
    Посетители, находящиеся в группе Гости, не могут оставлять комментарии в данной новости.
    Главная страница | Регистрация | Добавить новость | Новое на сайте Copyright © 2019. bolt.mmix.club All Rights Reserved