Подписывайся на наш канал в Telegram https://t.me/torrentok и получи доступ к торрентам без ограничений!
. bolt.mmix.club
Авторские права
con...@...Показать
Вход на сайт
Логин:
Пароль:
 
Навигация по сайту
Популярные статьи

Торрент трекер | Скачать торрент | Скачать через Торрент | Скачать торрент бесплатно | Скачать торрент без регистрации Фильмы торрент скачать Пораженный / Afflicted (2013) BDRip [H.264 / 1080p] [DVO] торрент скачать бесплатно

Пораженный / Afflicted (2013) BDRip [H.264 / 1080p] [DVO] торрент скачать бесплатно

Фильмы торрент скачать
Пораженный / Afflicted (2013) BDRip [H.264 / 1080p] [DVO]Производство: Канада, США/Automatik Entertainment, IM Global, Téléfilm Canada
Жанр: ужасы, триллер, детектив
Режиссер: Дерек Ли, Клифф Проуз

Актеры
Дерек Ли, Клифф Проуз, Майкл Гилл, Байя Реас, Бенжамин Зэйтун, Зак Грей, Джейсон Ли, Эдо Ван Бримен, Гэри Ридекоп, Лили Пай Ли

Описание

Лучшие друзья Клифф и Дерек в поисках приключений отправляются в кругосветное путешествие. Но дело принимает иной оборот, когда после встречи с незнакомкой одного из друзей поражает таинственный недуг.


Возраст: 16+ (зрителям, достигшим 16 лет)
Рейтинг MPAA: R (лицам до 17 лет обязательно присутствие взрослого)
Релиз от: CINEMANIA
Продолжительность: 01: 25: 45
Качество видео: BDRip
Перевод: Двуголосый профессиональный, одноголосый любительский
Субтитры: русские (forced), английские
Видео: AVC/H.264, 1920х1040, ~14, 3 Mbps
Аудио 1: AC3, 2 ch, 192 Kbps, русский (DVO)
Аудио 2: AC3, 2 ch, 192 Kbps, русский (VO-Антон Агапов)
Аудио 2: DTS, 6 ch, 1509 Kbps, английский (оригинал)
Общее
Уникальный идентификатор : 253921856271014366941006687712860228811 (0xBF0792164B2B840394CCFC3B76B8CCCB)
Полное имя : E: DownloadsAfflicted.2013.Blu.Ray.1080p.CINEMANIA.mkv
Формат : Matroska
Версия формата : Version 4
Размер файла : 9, 92 Гбайт
Продолжительность : 1 ч. 25 м.
Общий поток : 16, 6 Мбит/сек
Название фильма : Release Group CINEMANIA
Дата кодирования : UTC 2014-12-17 17: 46: 49
Программа кодирования : mkvmerge v7.4.0 (\'Circles\') 64bit built on Dec 12 2014 12: 19: 56
Библиотека кодирования : libebml v1.3.0 + libmatroska v1.4.1
Видео
Идентификатор : 1
Формат : AVC
Формат/Информация : Advanced Video Codec
Профиль формата : High@L4.1
Настройки формата : CABAC/4 Ref Frames
Параметр CABAC формата : Да
Параметр RefFrames формата : 4 кадра
Идентификатор кодека : V_MPEG4/ISO/AVC
Продолжительность : 1 ч. 25 м.
Битрейт : 14, 3 Мбит/сек
Ширина : 1 920 пикселей
Высота : 1 040 пикселей
Соотношение сторон : 1, 85: 1
Режим частоты кадров : Постоянный
Частота кадров : 23, 976 (24000/1001) кадра/сек
Цветовое пространство : YUV
Субдискретизация насыщенности : 4: 2: 0
Битовая глубина : 8 бит
Тип развёртки : Прогрессивная
Бит/(Пиксели*Кадры) : 0.299
Размер потока : 8, 58 Гбайт (87%)
Заголовок : Release Group CINEMANIA
Библиотека кодирования : x264 core 142 r2431 ac76440
Настройки программы : cabac=1/ref=4/deblock=1: -3: -3/analyse=0x3: 0x133/me=umh/subme=10/psy=1/psy_rd=1.01: 0.00/mixed_ref=1/me_range=24/chroma_me=1/trellis=2/8x8dct=1/cqm=0/deadzone=21, 11/fast_pskip=0/chroma_qp_offset=-2/threads=6/lookahead_threads=1/sliced_threads=0/nr=0/decimate=0/interlaced=0/bluray_compat=0/constrained_intra=0/bframes=13/b_pyramid=2/b_adapt=2/b_bias=0/direct=3/weightb=1/open_gop=0/weightp=2/keyint=250/keyint_min=23/scenecut=40/intra_refresh=0/rc=crf/mbtree=0/crf=17.9/qcomp=0.74/qpmin=0/qpmax=69/qpstep=4/ip_ratio=1.30/pb_ratio=1.20/aq=1: 0.84
Язык : English
Default : Да
Forced : Нет
Аудио #1
Идентификатор : 2
Формат : AC-3
Формат/Информация : Audio Coding 3
Коммерческое название : Dolby Digital
Идентификатор кодека : A_AC3
Продолжительность : 1 ч. 25 м.
Вид битрейта : Постоянный
Битрейт : 192 Кбит/сек
Каналы : 2 канала
Channel layout : L R
Частота : 48, 0 КГц
Частота кадров : 31, 250 кадров/сек (1536 SPF)
Метод сжатия : С потерями
Размер потока : 118 Мбайт (1%)
Заголовок : online movies
Язык : Russian
Service kind : Complete Main
Default : Да
Forced : Да
Аудио #2
Идентификатор : 3
Формат : AC-3
Формат/Информация : Audio Coding 3
Коммерческое название : Dolby Digital
Идентификатор кодека : A_AC3
Продолжительность : 1 ч. 25 м.
Вид битрейта : Постоянный
Битрейт : 192 Кбит/сек
Каналы : 2 канала
Channel layout : L R
Частота : 48, 0 КГц
Частота кадров : 31, 250 кадров/сек (1536 SPF)
Метод сжатия : С потерями
Размер потока : 118 Мбайт (1%)
Заголовок : Антон Агапов
Язык : Russian
Service kind : Complete Main
Default : Нет
Forced : Нет
Аудио #3
Идентификатор : 4
Формат : DTS
Формат/Информация : Digital Theater Systems
Идентификатор кодека : A_DTS
Продолжительность : 1 ч. 25 м.
Вид битрейта : Постоянный
Битрейт : 1 509 Кбит/сек
Каналы : 6 каналов
Channel layout : C L R Ls Rs LFE
Частота : 48, 0 КГц
Частота кадров : 93, 750 кадра/сек (512 SPF)
Битовая глубина : 24 бит
Метод сжатия : С потерями
Размер потока : 926 Мбайт (9%)
Язык : English
Default : Нет
Forced : Нет
Текст #1
Идентификатор : 5
Формат : UTF-8
Идентификатор кодека : S_TEXT/UTF8
Идентификатор кодека/Информация : UTF-8 Plain Text
Язык : Russian
Default : Да
Forced : Да
Текст #2
Идентификатор : 6
Формат : UTF-8
Идентификатор кодека : S_TEXT/UTF8
Идентификатор кодека/Информация : UTF-8 Plain Text
Язык : English
Default : Нет
Forced : Нет
Меню
00: 00: 00.000 : en: Chapter 01
00: 04: 46.495 : en: Chapter 02
00: 09: 52.133 : en: Chapter 03
00: 15: 36.102 : en: Chapter 04
00: 18: 40.244 : en: Chapter 05
00: 28: 27.539 : en: Chapter 06
00: 35: 15.780 : en: Chapter 07
00: 38: 58.586 : en: Chapter 08
00: 43: 48.000 : en: Chapter 09
00: 47: 27.678 : en: Chapter 10
00: 50: 34.281 : en: Chapter 11
00: 54: 14.751 : en: Chapter 12
01: 01: 20.552 : en: Chapter 13
01: 10: 33.354 : en: Chapter 14
01: 16: 33.297 : en: Chapter 15
01: 19: 30.516 : en: Chapter 16

Скриншоты для ознакомления



Все одноименные релизы в Клубе
Время раздачи: 24/7 (мультитрекерная раздача)
 
Уважаемый посетитель, Вы зашли на сайт как незарегистрированный пользователь. Мы рекомендуем Вам зарегистрироваться либо зайти на сайт под своим именем.

Другие новости по теме:

  • Пораженный / Afflicted (2013) HDRip скачать через торрент бесплатно
  • Пораженный / Afflicted (2013) HDRip


  • Информация
    Посетители, находящиеся в группе Гости, не могут оставлять комментарии в данной новости.
    Главная страница | Регистрация | Добавить новость | Новое на сайте Copyright © 2019. bolt.mmix.club All Rights Reserved