Подписывайся на наш канал в Telegram https://t.me/torrentok и получи доступ к торрентам без ограничений!
. bolt.mmix.club
Авторские права
con...@...Показать
Вход на сайт
Логин:
Пароль:
 
Навигация по сайту
Популярные статьи

Торрент трекер | Скачать торрент | Скачать через Торрент | Скачать торрент бесплатно | Скачать торрент без регистрации Фильмы торрент скачать На крючке / Eagle Eye (2008) BDRip [H.264 / 720p] торрент скачать бесплатно

На крючке / Eagle Eye (2008) BDRip [H.264 / 720p] торрент скачать бесплатно

Фильмы торрент скачать
На крючке / Eagle Eye (2008) BDRip [H.264 / 720p]Производство: США, Германия/DreamWorks, Goldcrest Pictures, KMP Film Invest
Жанр: фантастика, боевик, триллер, детектив
Режиссер: Ди Джей Карузо

Актеры
Шайа ЛаБаф, Мишель Монахэн, Билли Боб Торнтон, Розарио Доусон, Майкл Чиклис, Энтони Маки, Итэн Эмбри, Энтони Азизи, Кэмерон Бойс, Линн Коэн, Билл Смитрович, Чарльз Кэррол

Описание

Юный бездельник живет беззаботной жизнью, в отличие от своего брата-близнеца, стремящегося добиться успеха во всех сферах жизни, пока… тот не погибает при загадочных обстоятельствах. В то же время у матери-одиночки Рэйчел крадут ребёнка…

Возраст: 16+ (зрителям, достигшим 16 лет)
Рейтинг MPAA: PG-13 (детям до 13 лет просмотр нежелателен)
Продолжительность: 01: 57: 35
Качество видео: BDRip
Перевод: Дублированный, многоголосый профессиональный, авторский
Субтитры: русские, английские
Видео: AVC/H.264, 1280x534, ~6454 kbps
Аудио 1: AC3, 6 ch, 640 kbps, Русский (DUB BD CEE)
Аудио 2: AC3, 6 ch, 448 kbps, Русский (MVO Киномания)
Аудио 3: AC3, 6 ch, 448 kbps, Русский (AVO A.Гаврилов)
Аудио 4: AC3, 6 ch, 448 kbps, Русский (AVO Ю.Сербин)
Аудио 5: AC3, 6 ch, 384 kbps, Английский
Общее
Уникальный идентификатор : 220629456787370169197611175259168029157 (0xA5FBB00FFECA9B1DBFC339CCABCBB9E5)
Полное имя : F: CINEMAEagle.Eye.2008.BDRip.720p.mkv
Формат : Matroska
Версия формата : Version 4
Размер файла : 7, 25 Гбайт
Продолжительность : 1 ч. 57 м.
Общий поток : 8 825 Кбит/сек
Название фильма : Eagle Eye (2008)
Дата кодирования : UTC 2020-08-17 06: 19: 49
Программа кодирования : mkvmerge v8.2.0 (\'World of Adventure\') 64bit
Библиотека кодирования : libebml v1.3.1 + libmatroska v1.4.2
Attachments : CronosPro-Bold.ttf/CronosPro-Semibold.ttf/CronosPro-SemiboldIt.ttf/times.ttf/timesbd.ttf
Видео
Идентификатор : 1
Формат : AVC
Формат/Информация : Advanced Video Codec
Профиль формата : High@L4.1
Настройки формата : CABAC/8 Ref Frames
Параметр CABAC формата : Да
Параметр RefFrames формата : 8 кадров
Идентификатор кодека : V_MPEG4/ISO/AVC
Продолжительность : 1 ч. 57 м.
Битрейт : 6 454 Кбит/сек
Ширина : 1 280 пикселей
Высота : 534 пикселя
Соотношение сторон : 2, 40: 1
Режим частоты кадров : Постоянный
Частота кадров : 23, 976 кадра/сек
Цветовое пространство : YUV
Субдискретизация насыщенности : 4: 2: 0
Битовая глубина : 8 бит
Тип развёртки : Прогрессивная
Бит/(Пиксели*Кадры) : 0.394
Размер потока : 5, 30 Гбайт (73%)
Заголовок : Eagle
Библиотека кодирования : x264 core 65 r1042M 5df2a71
Настройки программы : cabac=1/ref=8/deblock=1: -3: -3/analyse=0x3: 0x133/me=umh/subme=9/psy_rd=0.8: 0.6/mixed_ref=1/me_range=24/chroma_me=1/trellis=2/8x8dct=1/cqm=2/deadzone=21, 11/chroma_qp_offset=-2/threads=6/nr=0/decimate=1/mbaff=0/bframes=3/b_pyramid=1/b_adapt=2/b_bias=0/direct=3/wpredb=1/keyint=250/keyint_min=25/scenecut=40(pre)/rc=2pass/bitrate=6454/ratetol=1.0/qcomp=0.60/qpmin=10/qpmax=30/qpstep=4/cplxblur=20.0/qblur=0.5/ip_ratio=1.40/pb_ratio=1.30/aq=1: 0.65
Язык : English
Default : Да
Forced : Нет
Аудио #1
Идентификатор : 2
Формат : AC-3
Формат/Информация : Audio Coding 3
Коммерческое название : Dolby Digital
Идентификатор кодека : A_AC3
Продолжительность : 1 ч. 57 м.
Вид битрейта : Постоянный
Битрейт : 640 Кбит/сек
Каналы : 6 каналов
Channel layout : L R C LFE Ls Rs
Частота : 48, 0 КГц
Частота кадров : 31, 250 кадров/сек (1536 SPF)
Метод сжатия : С потерями
Размер потока : 538 Мбайт (7%)
Заголовок : DUB BD CEE
Язык : Russian
Service kind : Complete Main
Default : Да
Forced : Нет
Аудио #2
Идентификатор : 3
Формат : AC-3
Формат/Информация : Audio Coding 3
Коммерческое название : Dolby Digital
Идентификатор кодека : A_AC3
Продолжительность : 1 ч. 57 м.
Вид битрейта : Постоянный
Битрейт : 448 Кбит/сек
Каналы : 6 каналов
Channel layout : L R C LFE Ls Rs
Частота : 48, 0 КГц
Частота кадров : 31, 250 кадров/сек (1536 SPF)
Метод сжатия : С потерями
Размер потока : 377 Мбайт (5%)
Заголовок : MVO Киномания
Язык : Russian
Service kind : Complete Main
Default : Нет
Forced : Нет
Аудио #3
Идентификатор : 4
Формат : AC-3
Формат/Информация : Audio Coding 3
Коммерческое название : Dolby Digital
Идентификатор кодека : A_AC3
Продолжительность : 1 ч. 57 м.
Вид битрейта : Постоянный
Битрейт : 448 Кбит/сек
Каналы : 6 каналов
Channel layout : L R C LFE Ls Rs
Частота : 48, 0 КГц
Частота кадров : 31, 250 кадров/сек (1536 SPF)
Метод сжатия : С потерями
Размер потока : 377 Мбайт (5%)
Заголовок : AVO A.Гаврилов
Язык : Russian
Service kind : Complete Main
Default : Нет
Forced : Нет
Аудио #4
Идентификатор : 5
Формат : AC-3
Формат/Информация : Audio Coding 3
Коммерческое название : Dolby Digital
Идентификатор кодека : A_AC3
Продолжительность : 1 ч. 57 м.
Вид битрейта : Постоянный
Битрейт : 448 Кбит/сек
Каналы : 6 каналов
Channel layout : L R C LFE Ls Rs
Частота : 48, 0 КГц
Частота кадров : 31, 250 кадров/сек (1536 SPF)
Метод сжатия : С потерями
Размер потока : 377 Мбайт (5%)
Заголовок : AVO Ю.Сербин
Язык : Russian
Service kind : Complete Main
Default : Нет
Forced : Нет
Аудио #5
Идентификатор : 6
Формат : AC-3
Формат/Информация : Audio Coding 3
Коммерческое название : Dolby Digital
Идентификатор кодека : A_AC3
Продолжительность : 1 ч. 57 м.
Вид битрейта : Постоянный
Битрейт : 384 Кбит/сек
Каналы : 6 каналов
Channel layout : L R C LFE Ls Rs
Частота : 48, 0 КГц
Частота кадров : 31, 250 кадров/сек (1536 SPF)
Метод сжатия : С потерями
Размер потока : 323 Мбайт (4%)
Заголовок : Original
Язык : English
Service kind : Complete Main
Default : Нет
Forced : Нет
Текст #1
Идентификатор : 7
Формат : UTF-8
Идентификатор кодека : S_TEXT/UTF8
Идентификатор кодека/Информация : UTF-8 Plain Text
Продолжительность : 1 ч. 27 м.
Битрейт : 2 бит/сек
Count of elements : 27
Размер потока : 1, 34 Кбайт (0%)
Заголовок : forced
Язык : Russian
Default : Да
Forced : Нет
Текст #2
Идентификатор : 8
Формат : UTF-8
Идентификатор кодека : S_TEXT/UTF8
Идентификатор кодека/Информация : UTF-8 Plain Text
Продолжительность : 1 ч. 56 м.
Битрейт : 121 бит/сек
Count of elements : 1558
Размер потока : 104 Кбайт (0%)
Заголовок : full
Язык : Russian
Default : Нет
Forced : Нет
Текст #3
Идентификатор : 9
Формат : ASS
Идентификатор кодека : S_TEXT/ASS
Идентификатор кодека/Информация : Advanced Sub Station Alpha
Продолжительность : 1 ч. 49 м.
Битрейт : 129 бит/сек
Count of elements : 1463
Метод сжатия : Без потерь
Размер потока : 104 Кбайт (0%)
Заголовок : full
Язык : English
Default : Нет
Forced : Нет

Скриншоты для ознакомления



Все одноименные релизы в Клубе
Время раздачи: c 5 до 19 мск (до появления первых 3-5 скачавших)
 
Уважаемый посетитель, Вы зашли на сайт как незарегистрированный пользователь. Мы рекомендуем Вам зарегистрироваться либо зайти на сайт под своим именем.

Другие новости по теме:

  • На крючке / Eagle Eye (2008) BDRemux [1080p]
  • На крючке / Eagle Eye (2008) [1080p] BDRip
  • На крючке / Eagle Eye (2008) WEBRip [H.264 / 1080p-LQ] [Open Matte] [PR]
  • На крючке / Eagle Eye (2008) BDRemux [H.264 / 1080p]


  • Информация
    Посетители, находящиеся в группе Гости, не могут оставлять комментарии в данной новости.
    Главная страница | Регистрация | Добавить новость | Новое на сайте Copyright © 2019. bolt.mmix.club All Rights Reserved