Подписывайся на наш канал в Telegram https://t.me/torrentok и получи доступ к торрентам без ограничений!
. bolt.mmix.club
Авторские права
con...@...Показать
Вход на сайт
Логин:
Пароль:
 
Навигация по сайту
Популярные статьи

Торрент трекер | Скачать торрент | Скачать через Торрент | Скачать торрент бесплатно | Скачать торрент без регистрации Фильмы торрент скачать Ливень / Hard Rain (1998) WEB-DL [H.264 / 1080p] [Open Matte] торрент скачать бесплатно

Ливень / Hard Rain (1998) WEB-DL [H.264 / 1080p] [Open Matte] торрент скачать бесплатно

Фильмы торрент скачать
Ливень / Hard Rain (1998) WEB-DL [H.264 / 1080p] [Open Matte]Производство: США, Великобритания, Дания, Франция, Япония, Новая Зеландия, Германия, Австралия/Paramount Pictures, Mutual Film Corporation, PolyGram Filmed Entertainment
Жанр: Боевик, триллер, драма, криминал
Режиссер: Микаэл Саломон

Актеры
Морган Фримен, Кристиан Слэйтер, Рэнди Куэйд, Минни Драйвер, Эдвард Аснер, Майкл А. Гурджиан, Дэнн Флорек, Рики Харрис, Марк Ролстон, Питер Мёрник

Описание

Вышедшая из берегов река становится причиной крупного наводнения в провинциальном американском городке. Мимо города следует инкассаторский автомобиль, перевозящий несколько миллионов долларов. Попав в засаду, неопытный охранник Том оказывается один на один с бандой беспощадного Джима и бушующей природной стихией.

Возраст: 16+ (зрителям, достигшим 16 лет)
Рейтинг MPAA: R (лицам до 17 лет обязательно присутствие взрослого)
Продолжительность: 01: 36: 47
Качество видео: WEB-DL
Перевод: Дублированный, многоголосый профессиональный, двухголосый профессиональный, авторский
Субтитры: Русские, английские
Видео: AVC/H.264, 1920x1080, ~14 Mbps
Аудио 1: AC3, 2 ch, 192 Kbps, Русский (DVO Премьер Мультимедиа)
Аудио 2: DTS, 6 ch, 1510 Kbps, Русский (DUB)
Аудио 3: DTS, 6 ch, 1510 Kbps, Русский (MVO Lizard Cinema Trade)
Аудио 4: AC3, 2 ch, 192 Kbps, Русский (MVO OPT)
Аудио 5: DTS, 6 ch, 1510 Kbps, Русский (AVO А.Гаврилов)
Аудио 6: DTS, 6 ch, 1510 Kbps, Русский (AVO Ю.Живов)
Аудио 7: DTS, 6 ch, 1510 Kbps, Английский
Общее
Уникальный идентификатор : 197424198196245605497917429323094594302 (0x9486847B39D8C8068C0A3D9D1BD892FE)
Полное имя : F: CINEMAHard.Rain.1997.WEB-DL.1080p.Open.Matte.mkv
Формат : Matroska
Версия формата : Version 4
Размер файла : 14, 9 Гбайт
Продолжительность : 1 ч. 36 м.
Режим общего битрейта : Переменный
Общий поток : 22, 0 Мбит/сек
Название фильма : Hard Rain
Дата кодирования : UTC 2020-08-16 10: 48: 37
Программа кодирования : mkvmerge v8.2.0 (\'World of Adventure\') 64bit
Библиотека кодирования : libebml v1.3.1 + libmatroska v1.4.2
Видео
Идентификатор : 1
Формат : AVC
Формат/Информация : Advanced Video Codec
Профиль формата : High@L4
Настройки формата : CABAC/4 Ref Frames
Параметр CABAC формата : Да
Параметр RefFrames формата : 4 кадра
Идентификатор кодека : V_MPEG4/ISO/AVC
Продолжительность : 1 ч. 36 м.
Вид битрейта : Переменный
Битрейт : 14, 0 Мбит/сек
Максимальный битрейт : 15, 0 Мбит/сек
Ширина : 1 920 пикселей
Высота : 1 080 пикселей
Соотношение сторон : 16: 9
Режим частоты кадров : Постоянный
Частота кадров : 23, 976 (24000/1001) кадра/сек
Цветовое пространство : YUV
Субдискретизация насыщенности : 4: 2: 0
Битовая глубина : 8 бит
Тип развёртки : Прогрессивная
Бит/(Пиксели*Кадры) : 0.282
Размер потока : 9, 48 Гбайт (64%)
Заголовок : Hard Rain 1998
Язык : English
Default : Да
Forced : Нет
Цветовой диапазон : Limited
Основные цвета : BT.709
Характеристики трансфера : BT.709
Коэффициенты матрицы : BT.709
Аудио #1
Идентификатор : 2
Формат : AC-3
Формат/Информация : Audio Coding 3
Коммерческое название : Dolby Digital
Идентификатор кодека : A_AC3
Продолжительность : 1 ч. 36 м.
Вид битрейта : Постоянный
Битрейт : 192 Кбит/сек
Каналы : 2 канала
Channel layout : L R
Частота : 48, 0 КГц
Частота кадров : 31, 250 кадров/сек (1536 SPF)
Метод сжатия : С потерями
Размер потока : 133 Мбайт (1%)
Заголовок : DVO Премьер Мультимедиа
Язык : Russian
Service kind : Complete Main
Default : Да
Forced : Нет
Аудио #2
Идентификатор : 3
Формат : DTS
Формат/Информация : Digital Theater Systems
Идентификатор кодека : A_DTS
Продолжительность : 1 ч. 36 м.
Вид битрейта : Постоянный
Битрейт : 1 510 Кбит/сек
Каналы : 6 каналов
Channel layout : C L R Ls Rs LFE
Частота : 48, 0 КГц
Частота кадров : 93, 750 кадра/сек (512 SPF)
Битовая глубина : 24 бит
Метод сжатия : С потерями
Размер потока : 1, 02 Гбайт (7%)
Заголовок : DUB
Язык : Russian
Default : Нет
Forced : Нет
Аудио #3
Идентификатор : 4
Формат : DTS
Формат/Информация : Digital Theater Systems
Идентификатор кодека : A_DTS
Продолжительность : 1 ч. 36 м.
Вид битрейта : Постоянный
Битрейт : 1 510 Кбит/сек
Каналы : 6 каналов
Channel layout : C L R Ls Rs LFE
Частота : 48, 0 КГц
Частота кадров : 93, 750 кадра/сек (512 SPF)
Битовая глубина : 24 бит
Метод сжатия : С потерями
Размер потока : 1, 02 Гбайт (7%)
Заголовок : MVO Lizard Cinema Trade
Язык : Russian
Default : Нет
Forced : Нет
Аудио #4
Идентификатор : 5
Формат : AC-3
Формат/Информация : Audio Coding 3
Коммерческое название : Dolby Digital
Идентификатор кодека : A_AC3
Продолжительность : 1 ч. 36 м.
Вид битрейта : Постоянный
Битрейт : 192 Кбит/сек
Каналы : 2 канала
Channel layout : L R
Частота : 48, 0 КГц
Частота кадров : 31, 250 кадров/сек (1536 SPF)
Метод сжатия : С потерями
Размер потока : 133 Мбайт (1%)
Заголовок : MVO ОРТ
Язык : Russian
Service kind : Complete Main
Default : Нет
Forced : Нет
Аудио #5
Идентификатор : 6
Формат : DTS
Формат/Информация : Digital Theater Systems
Идентификатор кодека : A_DTS
Продолжительность : 1 ч. 36 м.
Вид битрейта : Постоянный
Битрейт : 1 510 Кбит/сек
Каналы : 6 каналов
Channel layout : C L R Ls Rs LFE
Частота : 48, 0 КГц
Частота кадров : 93, 750 кадра/сек (512 SPF)
Битовая глубина : 24 бит
Метод сжатия : С потерями
Размер потока : 1, 02 Гбайт (7%)
Заголовок : AVO А.Гаврилов
Язык : Russian
Default : Нет
Forced : Нет
Аудио #6
Идентификатор : 7
Формат : DTS
Формат/Информация : Digital Theater Systems
Идентификатор кодека : A_DTS
Продолжительность : 1 ч. 36 м.
Вид битрейта : Постоянный
Битрейт : 1 510 Кбит/сек
Каналы : 6 каналов
Channel layout : C L R Ls Rs LFE
Частота : 48, 0 КГц
Частота кадров : 93, 750 кадра/сек (512 SPF)
Битовая глубина : 24 бит
Метод сжатия : С потерями
Размер потока : 1, 02 Гбайт (7%)
Заголовок : AVO Ю.Живов
Язык : Russian
Default : Нет
Forced : Нет
Аудио #7
Идентификатор : 8
Формат : DTS
Формат/Информация : Digital Theater Systems
Идентификатор кодека : A_DTS
Продолжительность : 1 ч. 36 м.
Вид битрейта : Постоянный
Битрейт : 1 510 Кбит/сек
Каналы : 6 каналов
Channel layout : C L R Ls Rs LFE
Частота : 48, 0 КГц
Частота кадров : 93, 750 кадра/сек (512 SPF)
Битовая глубина : 24 бит
Метод сжатия : С потерями
Размер потока : 1, 02 Гбайт (7%)
Заголовок : ENG
Язык : English
Default : Нет
Forced : Нет
Текст #1
Идентификатор : 9
Формат : PGS
Режим смешивания : zlib
Идентификатор кодека : S_HDMV/PGS
Идентификатор кодека/Информация : Picture based subtitle format used on BDs/HD-DVDs
Продолжительность : 1 ч. 32 м.
Битрейт : 3 992 бит/сек
Count of elements : 1200
Размер потока : 2, 63 Мбайт (0%)
Язык : Russian
Default : Нет
Forced : Нет
Текст #2
Идентификатор : 10
Формат : PGS
Режим смешивания : zlib
Идентификатор кодека : S_HDMV/PGS
Идентификатор кодека/Информация : Picture based subtitle format used on BDs/HD-DVDs
Продолжительность : 1 ч. 29 м.
Битрейт : 7 768 бит/сек
Count of elements : 1620
Размер потока : 4, 99 Мбайт (0%)
Язык : English
Default : Нет
Forced : Нет
Текст #3
Идентификатор : 11
Формат : PGS
Режим смешивания : zlib
Идентификатор кодека : S_HDMV/PGS
Идентификатор кодека/Информация : Picture based subtitle format used on BDs/HD-DVDs
Продолжительность : 1 ч. 32 м.
Битрейт : 8 415 бит/сек
Count of elements : 1844
Размер потока : 5, 57 Мбайт (0%)
Язык : English
Default : Нет
Forced : Нет
Исходник видео WEB-DL Amazon STARZ (Периодически появляется логотип)
Open Matte версия фильма, имеет большее наполнение кадра, по сравнению с Blu-ray.
Скриншоты для ознакомления



Все одноименные релизы в Клубе
Время раздачи: с 5 до 19 мск (до появления первых 3-5 скачавших)
 
Уважаемый посетитель, Вы зашли на сайт как незарегистрированный пользователь. Мы рекомендуем Вам зарегистрироваться либо зайти на сайт под своим именем.

Другие новости по теме:

  • Ливень / Hard Rain (1998) BD-Remux [H.264 / 1080p] скачать через торрент бесплатно
  • Ливень / Hard Rain (1998) BDRip [H.264] скачать через торрент бесплатно
  • Ливень / Hard Rain (1998) BDRip [H.264 / 1080p-LQ]
  • Ливень / Hard Rain (1998) HDRip
  • Ливень / Hard Rain (1998) BDRip [H.265 / 1080p] [10-bit]
  • Ливень / Hard Rain (1998) BDRip [H.264 / 1080p]


  • Информация
    Посетители, находящиеся в группе Гости, не могут оставлять комментарии в данной новости.
    Главная страница | Регистрация | Добавить новость | Новое на сайте Copyright © 2019. bolt.mmix.club All Rights Reserved