Подписывайся на наш канал в Telegram https://t.me/torrentok и получи доступ к торрентам без ограничений!
. bolt.mmix.club
Авторские права
con...@...Показать
Вход на сайт
Логин:
Пароль:
 
Навигация по сайту
Популярные статьи

Торрент трекер | Скачать торрент | Скачать через Торрент | Скачать торрент бесплатно | Скачать торрент без регистрации Фильмы торрент скачать Игры с огнём / Playing with Fire (2019) BDRip [H.264 / 720p] торрент скачать бесплатно

Игры с огнём / Playing with Fire (2019) BDRip [H.264 / 720p] торрент скачать бесплатно

Фильмы торрент скачать
Игры с огнём / Playing with Fire (2019) BDRip [H.264 / 720p]Производство: США/Broken Road Productions, Nickelodeon Movies, Paramount Player
Жанр: Комедия, Семейный
Режиссер: Энди Фикмен
Продюсер: Тодд Гарнер, Марк Моран, Шон Робинс

Актеры
Джон Сина, Кигэн-Майкл Ки, Брианна Хилдебранд, Джон Легуизамо, Кристиан Конвери, Финли Роуз Слэйтер, Джуди Грир, Деннис Хейсбёрт, Дэниэл Кадмор

Описание

Когда суровый начальник пожарной части Джейк Карсон и его элитная команда опытных пожарных спасают троих детей, оказавшихся на пути наступающего лесного пожара, они быстро понимают, что никакие тренировки не могли подготовить их к самой сложной работе - стать няньками. Не имея возможности найти родителей детей, они сталкиваются с тем, что их жизни, работа и родное пожарное депо стремительно переворачиваются с ног на голову, ведь дети - как и пожары - дикие и непредсказуемые.


Возраст: 6+ (зрителям, достигшим 6 лет)
Рейтинг MPAA: PG (рекомендуется присутствие родителей)
Релиз от: selezen
Продолжительность: 01: 35: 59
Качество видео: BDRip
Перевод: Дублированный (Лицензия)
Субтитры: Русские (Forced, Full), Украинские (Forced, Full), Английские
Видео: AVC/H.264, 1280x720, ~8197 kbps
Аудио 1: AC3, 6 ch, 448 kbps - Русский (DUB, Лицензия)
Аудио 2: AC3, 2 ch, 192 kbps - Украинский
Аудио 3: AC3, 6 ch, 640 kbps - АнглийскийGeneral
General
Unique ID : 251476857647843666820616029052667980635 (0xBD30AE590F35DDDE150F7C49F3286B5B)
Complete name : E: Video111Playing.with.Fire.2019.BDRip.720p.seleZen.mkv
Format : Matroska
Format version : Version 4
File size : 6.36 GiB
Duration : 1 h 35 min
Overall bit rate : 9 479 kb/s
Movie name : Playing with Fire 2019 from селезень
Encoded date : UTC 2020-08-18 15: 25: 33
Writing application : mkvmerge v40.0.0 (\'Old Town Road + Pony\') 64-bit
Writing library : libebml v1.3.9 + libmatroska v1.5.2
Video
ID : 1
Format : AVC
Format/Info : Advanced Video Codec
Format profile : High@L4.1
Format settings : CABAC/9 Ref Frames
Format settings, CABAC : Yes
Format settings, Reference frames : 9 frames
Codec ID : V_MPEG4/ISO/AVC
Duration : 1 h 35 min
Bit rate : 8 197 kb/s
Width : 1 280 pixels
Height : 720 pixels
Display aspect ratio : 16: 9
Frame rate mode : Constant
Frame rate : 23.976 (24000/1001) FPS
Color space : YUV
Chroma subsampling : 4: 2: 0
Bit depth : 8 bits
Scan type : Progressive
Bits/(Pixel*Frame) : 0.371
Stream size : 5.50 GiB (86%)
Title : playHD
Writing library : x264 core 146 r2538 121396c
Encoding settings : cabac=1/ref=9/deblock=1: -3: -3/analyse=0x3: 0x133/me=umh/subme=10/psy=1/psy_rd=1.00: 0.00/mixed_ref=1/me_range=32/chroma_me=1/trellis=2/8x8dct=1/cqm=0/deadzone=21, 11/fast_pskip=0/chroma_qp_offset=-2/threads=6/lookahead_threads=1/sliced_threads=0/nr=0/decimate=0/interlaced=0/bluray_compat=0/constrained_intra=0/bframes=9/b_pyramid=2/b_adapt=2/b_bias=0/direct=3/weightb=1/open_gop=0/weightp=2/keyint=250/keyint_min=23/scenecut=40/intra_refresh=0/rc=crf/mbtree=0/crf=15.1/qcomp=0.60/qpmin=0/qpmax=69/qpstep=4/ip_ratio=1.40/pb_ratio=1.30/aq=3: 0.80
Language : English
Default : Yes
Forced : No
Audio #1
ID : 2
Format : AC-3
Format/Info : Audio Coding 3
Commercial name : Dolby Digital
Codec ID : A_AC3
Duration : 1 h 35 min
Bit rate mode : Constant
Bit rate : 448 kb/s
Channel(s) : 6 channels
Channel layout : L R C LFE Ls Rs
Sampling rate : 48.0 kHz
Frame rate : 31.250 FPS (1536 SPF)
Compression mode : Lossy
Stream size : 308 MiB (5%)
Title : Dub License R5
Language : Russian
Service kind : Complete Main
Default : Yes
Forced : Yes
Audio #2
ID : 3
Format : AC-3
Format/Info : Audio Coding 3
Commercial name : Dolby Digital
Codec ID : A_AC3
Duration : 1 h 35 min
Bit rate mode : Constant
Bit rate : 192 kb/s
Channel(s) : 2 channels
Channel layout : L R
Sampling rate : 48.0 kHz
Frame rate : 31.250 FPS (1536 SPF)
Compression mode : Lossy
Stream size : 132 MiB (2%)
Title : Dub
Language : Ukrainian
Service kind : Complete Main
Default : No
Forced : No
Audio #3
ID : 4
Format : AC-3
Format/Info : Audio Coding 3
Commercial name : Dolby Digital
Codec ID : A_AC3
Duration : 1 h 35 min
Bit rate mode : Constant
Bit rate : 640 kb/s
Channel(s) : 6 channels
Channel layout : L R C LFE Ls Rs
Sampling rate : 48.0 kHz
Frame rate : 31.250 FPS (1536 SPF)
Compression mode : Lossy
Stream size : 439 MiB (7%)
Title : Original
Language : English
Service kind : Complete Main
Default : No
Forced : No
Text #1
ID : 5
Format : UTF-8
Codec ID : S_TEXT/UTF8
Codec ID/Info : UTF-8 Plain Text
Duration : 1 h 35 min
Bit rate : 3 b/s
Count of elements : 44
Stream size : 2.29 KiB (0%)
Title : Forced
Language : Russian
Default : Yes
Forced : Yes
Text #2
ID : 6
Format : UTF-8
Codec ID : S_TEXT/UTF8
Codec ID/Info : UTF-8 Plain Text
Duration : 1 h 35 min
Bit rate : 112 b/s
Count of elements : 1544
Stream size : 78.6 KiB (0%)
Title : Full
Language : Russian
Default : No
Forced : No
Text #3
ID : 7
Format : UTF-8
Codec ID : S_TEXT/UTF8
Codec ID/Info : UTF-8 Plain Text
Duration : 1 h 35 min
Bit rate : 3 b/s
Count of elements : 44
Stream size : 2.13 KiB (0%)
Title : Forced
Language : Ukrainian
Default : No
Forced : No
Text #4
ID : 8
Format : UTF-8
Codec ID : S_TEXT/UTF8
Codec ID/Info : UTF-8 Plain Text
Duration : 1 h 35 min
Bit rate : 109 b/s
Count of elements : 1544
Stream size : 76.2 KiB (0%)
Title : Full
Language : Ukrainian
Default : No
Forced : No
Text #5
ID : 9
Format : UTF-8
Codec ID : S_TEXT/UTF8
Codec ID/Info : UTF-8 Plain Text
Duration : 1 h 31 min
Bit rate : 73 b/s
Count of elements : 1592
Stream size : 49.1 KiB (0%)
Language : English
Default : No
Forced : No
Menu
00: 00: 00.000 : en: 00: 00: 00.000
00: 04: 34.483 : en: 00: 04: 34.483
00: 11: 38.823 : en: 00: 11: 38.823
00: 18: 42.246 : en: 00: 18: 42.246
00: 23: 04.675 : en: 00: 23: 04.675
00: 28: 04.224 : en: 00: 28: 04.224
00: 32: 23.984 : en: 00: 32: 23.984
00: 41: 30.571 : en: 00: 41: 30.571
00: 48: 22.399 : en: 00: 48: 22.399
00: 52: 17.760 : en: 00: 52: 17.760
00: 57: 26.693 : en: 00: 57: 26.693
01: 02: 15.231 : en: 01: 02: 15.231
01: 10: 37.525 : en: 01: 10: 37.525
01: 16: 56.237 : en: 01: 16: 56.237
01: 23: 43.852 : en: 01: 23: 43.852
01: 29: 19.271 : en: 01: 29: 19.271

Скриншоты для ознакомления



Все одноименные релизы в Клубе
Время раздачи: 24/7 (мультитрекер)
 
Уважаемый посетитель, Вы зашли на сайт как незарегистрированный пользователь. Мы рекомендуем Вам зарегистрироваться либо зайти на сайт под своим именем.

Другие новости по теме:

  • Игры с огнём / Playing with Fire (2019) BDRip [H.264 / 1080p-LQ] [MVO, AD]
  • Игры с огнём / Playing with Fire (2019) BDRemux [H.264 / 1080p]
  • Игры с огнём / Playing with Fire (2019) BDRip [H.264 / 720p]
  • Игры с огнём / Playing with Fire (2019) HDRip
  • Игры с огнём / Playing with Fire (2019) BDRip [H.264 / 1080p]
  • Игры с огнём / Playing with Fire (2019) BDRemux [H.264 / 1080p]
  • Игры с огнём / Playing with Fire (2019) BDRip [H.264 / 1080p]


  • Информация
    Посетители, находящиеся в группе Гости, не могут оставлять комментарии в данной новости.
    Главная страница | Регистрация | Добавить новость | Новое на сайте Copyright © 2019. bolt.mmix.club All Rights Reserved