Подписывайся на наш канал в Telegram https://t.me/torrentok и получи доступ к торрентам без ограничений!
. bolt.mmix.club
Авторские права
con...@...Показать
Вход на сайт
Логин:
Пароль:
 
Навигация по сайту
Популярные статьи

Торрент трекер | Скачать торрент | Скачать через Торрент | Скачать торрент бесплатно | Скачать торрент без регистрации Фильмы торрент скачать Детям до 16-ти / Skipped Parts (2000) WEB-DL [H.264 / 1080p] торрент скачать бесплатно

Детям до 16-ти / Skipped Parts (2000) WEB-DL [H.264 / 1080p] торрент скачать бесплатно

Фильмы торрент скачать
Детям до 16-ти / Skipped Parts (2000) WEB-DL [H.264 / 1080p]Производство: США/Skipped Parts Productions
Жанр: Драма, мелодрама, комедия
Режиссер: Тамра Дэвис

Актеры
Дрю Бэрримор, Дженнифер Джейсон Ли, Миша Бартон, Баг Холл, Пегги Липтон, Анджела Фезерстоун, Брэд Ренфро, Р. Ли Эрми, Майкл Грейес, Джералд Лентон-Янг

Описание

Четырнадцатилетний Сэм Каллахан подошел к тому периоду жизни, когда в подростках просыпается обостренный интерес к противоположному полу. А поскольку Сэм собирается стать писателем, ему необходим богатый личный опыт, чтобы не сфальшивить в будущих произведениях. Сэм решает обратиться за помощью сначала к матери, потом к своей однокласснице Мори... Так начинается его путь к неожиданным открытиям.


Возраст: 12+ (зрителям, достигшим 12 лет)
Рейтинг MPAA: R (лицам до 17 лет обязательно присутствие взрослого)
Продолжительность: 01: 40: 09
Качество видео: WEB-DL
Перевод: Профессиональный двухголосый
Субтитры: Русские, английские
Видео: AVC/H.264, 1920x1080, ~10000 Kbps
Аудио 1: AC3, 6 ch, 384 Kbps - Русский (DVO, #1)
Аудио 2: AC3, 2 ch, 192 Kbps - Русский (DVO, #2)
Аудио 3: AC3, 2 ch, 192 Kbps - Русский (DVO, #3)
Аудио 4: E-AC3, 6 ch, 256 Kbps - АнглийскийGeneral
Unique ID : 248127024292862554072239236575020234297 (0xBAAB86CFE53A06A9B1443E2957BCB639)
Complete name : Skipped.Parts.2000.WEB-DL.1080p.mkv
Format : Matroska
Format version : Version 4/Version 2
File size : 7.66 GiB
Duration : 1 h 40 min
Overall bit rate : 11.0 Mb/s
Encoded date : UTC 2020-01-20 10: 15: 17
Writing application : mkvmerge v6.1.0 (\'Old Devil\') built on Mar 2 2013 14: 32: 37
Writing library : libebml v1.3.0 + libmatroska v1.4.0
Video
ID : 1
Format : AVC
Format/Info : Advanced Video Codec
Format profile : High@L4
Format settings : CABAC/4 Ref Frames
Format settings, CABAC : Yes
Format settings, ReFrames : 4 frames
Codec ID : V_MPEG4/ISO/AVC
Duration : 1 h 40 min
Bit rate mode : Constant
Bit rate : 10 000 kb/s
Width : 1 920 pixels
Height : 1 080 pixels
Display aspect ratio : 16: 9
Frame rate mode : Constant
Frame rate : 23.976 (24000/1001) FPS
Color space : YUV
Chroma subsampling : 4: 2: 0
Bit depth : 8 bits
Scan type : Progressive
Bits/(Pixel*Frame) : 0.201
Stream size : 6.80 GiB (89%)
Language : English
Default : Yes
Forced : No
Color range : Limited
Color primaries : BT.709
Transfer characteristics : BT.709
Matrix coefficients : BT.709
Audio #1
ID : 2
Format : AC-3
Format/Info : Audio Coding 3
Codec ID : A_AC3
Duration : 1 h 40 min
Bit rate mode : Constant
Bit rate : 384 kb/s
Channel(s) : 6 channels
Channel positions : Front: L C R, Side: L R, LFE
Sampling rate : 48.0 kHz
Frame rate : 31.250 FPS (1536 SPF)
Bit depth : 16 bits
Compression mode : Lossy
Stream size : 275 MiB (4%)
Title : DVO №1
Language : Russian
Service kind : Complete Main
Default : Yes
Forced : No
Audio #2
ID : 3
Format : AC-3
Format/Info : Audio Coding 3
Codec ID : A_AC3
Duration : 1 h 40 min
Bit rate mode : Constant
Bit rate : 192 kb/s
Channel(s) : 2 channels
Channel positions : Front: L R
Sampling rate : 48.0 kHz
Frame rate : 31.250 FPS (1536 SPF)
Bit depth : 16 bits
Compression mode : Lossy
Stream size : 138 MiB (2%)
Title : DVO №2
Language : Russian
Service kind : Complete Main
Default : No
Forced : No
Audio #3
ID : 4
Format : AC-3
Format/Info : Audio Coding 3
Codec ID : A_AC3
Duration : 1 h 40 min
Bit rate mode : Constant
Bit rate : 192 kb/s
Channel(s) : 2 channels
Channel positions : Front: L R
Sampling rate : 48.0 kHz
Frame rate : 31.250 FPS (1536 SPF)
Bit depth : 16 bits
Compression mode : Lossy
Stream size : 138 MiB (2%)
Title : DVO №3
Language : Russian
Service kind : Complete Main
Default : No
Forced : No
Audio #4
ID : 5
Format : E-AC-3
Format/Info : Enhanced Audio Coding 3
Codec ID : A_EAC3
Duration : 1 h 40 min
Bit rate mode : Constant
Bit rate : 256 kb/s
Channel(s) : 6 channels
Channel positions : Front: L C R, Side: L R, LFE
Sampling rate : 48.0 kHz
Frame rate : 187.500 FPS (256 SPF)
Compression mode : Lossy
Stream size : 183 MiB (2%)
Language : English
Service kind : Complete Main
Default : No
Forced : No
Text #1
ID : 6
Format : UTF-8
Codec ID : S_TEXT/UTF8
Codec ID/Info : UTF-8 Plain Text
Language : Russian
Default : No
Forced : No
Text #2
ID : 7
Format : UTF-8
Codec ID : S_TEXT/UTF8
Codec ID/Info : UTF-8 Plain Text
Language : English
Default : No
Forced : No
Text #3
ID : 8
Format : UTF-8
Codec ID : S_TEXT/UTF8
Codec ID/Info : UTF-8 Plain Text
Title : SDH
Language : English
Default : No
Forced : No

Скриншоты для ознакомления



Все одноименные релизы в Клубе
Время раздачи: 24/7 (мультитрекерная раздача)
 
Уважаемый посетитель, Вы зашли на сайт как незарегистрированный пользователь. Мы рекомендуем Вам зарегистрироваться либо зайти на сайт под своим именем.

Другие новости по теме:

  • Элейн Эйрон | Высокочувствительный ребенок. Как помочь нашим детям расцвести в этом тяжелом мире (2013) [PDF]
  • InternetUrok| Учёные - детям (2013) WEB-DLRip [H.264]
  • К. Ушинский | Детям (1978) [PDF] скачать через торрент бесплатно
  • Юлиан Тувим | Письмо ко всем детям по одному очень важному делу (1979) [PDF, DJVU] скачать через торрент бесплатно
  • Павел Астахов | Детям о праве (2015) [MP3] скачать через торрент бесплатно
  • Аудио Сказки Шарля Перро детям 1.1 [Ru] скачать через торрент бесплатно
  • Чарльз Лемб, Мэри Лемб | Шекспир, рассказанный детям (1994) [PDF] скачать через торрент бесплатно
  • Григорий Корнетов (сост.) | Дайте жить детям (сборник) (2010) [FB2] скачать через торрент бесплатно


  • Информация
    Посетители, находящиеся в группе Гости, не могут оставлять комментарии в данной новости.
    Главная страница | Регистрация | Добавить новость | Новое на сайте Copyright © 2019. bolt.mmix.club All Rights Reserved