Подписывайся на наш канал в Telegram https://t.me/torrentok и получи доступ к торрентам без ограничений!
. bolt.mmix.club
Авторские права
con...@...Показать
Вход на сайт
Логин:
Пароль:
 
Навигация по сайту
Популярные статьи

Торрент трекер | Скачать торрент | Скачать через Торрент | Скачать торрент бесплатно | Скачать торрент без регистрации Фильмы торрент скачать Залив тишины / The Bay of Silence (2020) WEB-DL [H.264 / 1080-LQ] [MVO] торрент скачать бесплатно

Залив тишины / The Bay of Silence (2020) WEB-DL [H.264 / 1080-LQ] [MVO] торрент скачать бесплатно

Фильмы торрент скачать
Залив тишины / The Bay of Silence (2020) WEB-DL [H.264 / 1080-LQ] [MVO]Производство: Великобритания, Tbos Film, Imperative Entertainment, Levitate Film
Жанр: триллер, детектив
Режиссер: Паула ван дер Уст

Актеры
Клас Банг, Ольга Куриленко, Брайан Кокс, Ассаад Буаб, Элис Крайдж, Кэролайн Гудолл, Шалиша Джеймс-Дэвис, Литиана Биутанасева, Лилибет Биутанасева, Дункан Дафф

Описание

Розалинда внезапно исчезает вместе с тремя детьми. Уилл ищет семью по всей Европе и находит своих родных в отдалённой деревне на севере Франции. Облегчение быстро сменяется ужасом из-за таинственной смерти маленького сына.


Возраст: 18+ (зрителям, достигшим 18 лет. запрещено для детей)
Дата мировой премьеры: 25 июля 2020
Дата российской премьеры: 20 августа 2020 , Парадиз
Релиз от: Plague Studios
Продолжительность: 01: 33: 28
Качество видео: WEB-DL
Перевод: Двуголосый любительский (Plague Studios)
Субтитры: Русские, английские
Видео: AVC/H.264, 1920x1080, 5018 kbps
Аудио 1: AC3, 6 ch, 384 kbps - русский
Аудио 2: AC3, 6 ch, 384 kbps - английский
Общее
Уникальный идентификатор : 269228333673614854503986387959623643215 (0xCA8B7DB034E3A9B92EE65C2D6552F04F)
Полное имя : The.Bay.of.Silence.2020.WEB-DL.AVC.1080p_Mallorn.mkv
Формат : Matroska
Версия формата : Version 4
Размер файла : 3, 78 Гбайт
Продолжительность : 1 ч. 33 м.
Общий поток : 5788 Кбит/сек
Дата кодирования : UTC 2020-08-17 18: 14: 36
Программа кодирования : mkvmerge v48.0.0 (\'Fortress Around Your Heart\') 64-bit
Библиотека кодирования : libebml v1.4.0 + libmatroska v1.6.0
Обложка : Yes
Attachments : small_cover.jpg/small_cover_land.jpg/cover.jpg/cover_land.jpg
Видео
Идентификатор : 1
Формат : AVC
Формат/Информация : Advanced Video Codec
Профиль формата : High@L4
Настройки формата : CABAC/2 Ref Frames
Параметр CABAC формата : Да
Параметр RefFrames формата : 2 кадра
Идентификатор кодека : V_MPEG4/ISO/AVC
Продолжительность : 1 ч. 33 м.
Битрейт : 5018 Кбит/сек
Ширина : 1920 пикселей
Высота : 1080 пикселей
Соотношение сторон : 16: 9
Режим частоты кадров : Постоянный
Частота кадров : 23, 976 (24000/1001) кадра/сек
Цветовое пространство : YUV
Субдискретизация насыщенности : 4: 2: 0
Битовая глубина : 8 бит
Тип развёртки : Прогрессивная
Бит/(Пиксели*Кадры) : 0.101
Размер потока : 3, 28 Гбайт (87%)
Библиотека кодирования : x264 core 155 r2901 7d0ff22
Язык : English
Default : Да
Forced : Нет
Цветовой диапазон : Limited
Основные цвета : BT.709
Характеристики трансфера : BT.709
Коэффициенты матрицы : BT.709
Аудио #1
Идентификатор : 2
Формат : AC-3
Формат/Информация : Audio Coding 3
Коммерческое название : Dolby Digital
Идентификатор кодека : A_AC3
Продолжительность : 1 ч. 33 м.
Вид битрейта : Постоянный
Битрейт : 384 Кбит/сек
Каналы : 6 каналов
Channel layout : L R C LFE Ls Rs
Частота : 48, 0 КГц
Частота кадров : 31, 250 кадров/сек (1536 SPF)
Битовая глубина : 16 бит
Метод сжатия : С потерями
Размер потока : 257 Мбайт (7%)
Заголовок : Mallorn
Язык : Russian
ServiceKind/String : Complete Main
Default : Да
Forced : Нет
Аудио #2
Идентификатор : 3
Формат : AC-3
Формат/Информация : Audio Coding 3
Коммерческое название : Dolby Digital
Идентификатор кодека : A_AC3
Продолжительность : 1 ч. 33 м.
Вид битрейта : Постоянный
Битрейт : 384 Кбит/сек
Каналы : 6 каналов
Channel layout : L R C LFE Ls Rs
Частота : 48, 0 КГц
Частота кадров : 31, 250 кадров/сек (1536 SPF)
Битовая глубина : 16 бит
Метод сжатия : С потерями
Размер потока : 257 Мбайт (7%)
Язык : English
ServiceKind/String : Complete Main
Default : Нет
Forced : Нет
Текст #1
Идентификатор : 4
Формат : UTF-8
Идентификатор кодека : S_TEXT/UTF8
Идентификатор кодека/Информация : UTF-8 Plain Text
Продолжительность : 1 ч. 25 м.
Битрейт : 57 бит/сек
ElementCount : 892
Размер потока : 36, 4 Кбайт (0%)
Язык : Russian
Default : Нет
Forced : Нет
Текст #2
Идентификатор : 5
Формат : UTF-8
Идентификатор кодека : S_TEXT/UTF8
Идентификатор кодека/Информация : UTF-8 Plain Text
Продолжительность : 1 ч. 23 м.
Битрейт : 37 бит/сек
ElementCount : 904
Размер потока : 22, 8 Кбайт (0%)
Язык : English
Default : Нет
Forced : Нет

Скриншоты для ознакомления



Все одноименные релизы в Клубе
Время раздачи: 24/7 (мультитрекер)
 
Уважаемый посетитель, Вы зашли на сайт как незарегистрированный пользователь. Мы рекомендуем Вам зарегистрироваться либо зайти на сайт под своим именем.

Другие новости по теме:

  • Залив счастья (1987) SATRip [H.264]
  • Залив Аламо / Alamo Bay (1985) BDRip
  • Красный залив / Red Billabong (2016) BDRip [H.264 / 720p]
  • Dead Reckoning 5: Snowbirds Creek / Точный расчет 5: Залив Сноуберд (2016) [Ru] (1.0) Unofficial [Collectors Edition / Коллекционное издание]
  • А. Е. Примаков | Персидский залив: нефть и монополии (1983) [DJVU]
  • Красный залив / Red Billabong (2016) BDRip [H.264 / 1080p] [VO]
  • Залив / The Bay (2012) BDRip [H.264 / 1080p] [PR]
  • Залив / The Gulf (2019) HDTVRip [H.264 / 720p-LQ] (сезон 1, серии 1-6 из 6) [En / Ru Sub] [PR]


  • Информация
    Посетители, находящиеся в группе Гости, не могут оставлять комментарии в данной новости.
    Главная страница | Регистрация | Добавить новость | Новое на сайте Copyright © 2019. bolt.mmix.club All Rights Reserved