Подписывайся на наш канал в Telegram https://t.me/torrentok и получи доступ к торрентам без ограничений!
. bolt.mmix.club
Авторские права
con...@...Показать
Вход на сайт
Логин:
Пароль:
 
Навигация по сайту
Популярные статьи

Торрент трекер | Скачать торрент | Скачать через Торрент | Скачать торрент бесплатно | Скачать торрент без регистрации Фильмы торрент скачать Проект Power / Project Power (2020) WEB-DL [H.264 / 1080p] торрент скачать бесплатно

Проект Power / Project Power (2020) WEB-DL [H.264 / 1080p] торрент скачать бесплатно

Фильмы торрент скачать
Проект Power / Project Power (2020) WEB-DL [H.264 / 1080p]Производство: США/NetFlix, Screen Arcade, Supermarché
Жанр: Боевик, фантастика
Режиссер: Генри Джуст, Эриель Шульман
Продюсер: Рэй Анджелик, Эрик Ньюман, Орли-Роуз Штраусс

Актеры
Джейми Фокс, Джозеф Гордон-Левитт, Доминик Фишбэк, Родриго Санторо, Кортни Б. Вэнс, Эми Ландекер, Колсон Бэйкер, Машин Ган Келли, Тейт Флетчер, Аллен Мальдонадо

Описание
В Новый Орлеан завозят капсулы, которые дают проглотившим их суперспособности на 5 минут. Но какие силы получит человек, предугадать невозможно: кого-то ждёт невидимость или суперскорость, а кого-то - мгновенная смерть. Старшеклассница Робин приторговывает этими пилюлями, чтобы сводить концы с концами и накопить на операцию для больной матери, и иногда снабжает ими знакомого полицейского Фрэнка. Однажды на Робин выходит бывший военный Арт и вынуждает её помочь ему отыскать источник загадочных капсул.


Рейтинг MPAA: R Лицам до 17 обязательно присутствие взрослых
Дата мировой премьеры: 14 августа 2020
Релиз от: Селезень
Продолжительность: 01: 53: 16
Качество видео: WEB-DL 1080p
Перевод: Дублированный, Профессиональный многоголосый
Субтитры: Русские (2 x Forced, Full), Английские (Forced, Full)
Видео: AVC/H.264, 1920x960, 15.3 Mbps, 24.000 fps
Аудио 1 : E-AC-3, 6 ch, 640 Kbps | Русский Netflix
Аудио 2 : AC-3, 6 ch, 640 Kbps | Русский Netflix
Аудио 3 : AC-3, 6 ch, 448 Kbps | Русский HDRezka Studio
Аудио 4 : E-AC3+Atmos, 6 ch, 768 Kbps | Английский
General
Unique ID : 269702066982840013222721037059576484571 (0xCAE6BA8B33734D7A494D5B34DCCAD2DB)
Complete name : /Volumes/Promise Pegasus/Project.Power.WEB-DL.1080p.mkv
Format : Matroska
Format version : Version 4
File size : 14.1 GiB
Duration : 1h 53mn
Overall bit rate : 17.8 Mbps
Movie name : Project Power WEB-DL 1080p
Encoded date : UTC 2020-08-18 23: 22: 23
Writing application : mkvmerge v49.0.0 (\'Sick Of Losing Soulmates\') 64-bit
Writing library : libebml v1.4.0 + libmatroska v1.6.1
Video
ID : 1
Format : AVC
Format/Info : Advanced Video Codec
Format profile : High@L4.1
Format settings : CABAC/5 Ref Frames
Format settings, CABAC : Yes
Format settings, ReFrames : 5 frames
Codec ID : V_MPEG4/ISO/AVC
Duration : 1h 53mn
Bit rate : 15.3 Mbps
Width : 1 920 pixels
Height : 960 pixels
Display aspect ratio : 2.000
Frame rate mode : Constant
Frame rate : 24.000 fps
Color space : YUV
Chroma subsampling : 4: 2: 0
Bit depth : 8 bits
Scan type : Progressive
Bits/(Pixel*Frame) : 0.346
Stream size : 12.1 GiB (86%)
Writing library : x264 core 160 r3009 4c9b076
Encoding settings : cabac=1/ref=5/deblock=1: -3: -3/analyse=0x3: 0x133/me=umh/subme=10/psy=1/psy_rd=1.00: 0.00/mixed_ref=1/me_range=32/chroma_me=1/trellis=2/8x8dct=1/cqm=0/deadzone=21, 11/fast_pskip=0/chroma_qp_offset=-2/threads=30/lookahead_threads=5/sliced_threads=0/nr=0/decimate=0/interlaced=0/bluray_compat=0/constrained_intra=0/bframes=8/b_pyramid=2/b_adapt=2/b_bias=0/direct=3/weightb=1/open_gop=0/weightp=2/keyint=250/keyint_min=23/scenecut=40/intra_refresh=0/rc=crf/mbtree=0/crf=18.0/qcomp=0.60/qpmin=0/qpmax=69/qpstep=4/ip_ratio=1.30/pb_ratio=1.20/aq=3: 0.80
Language : English
Default : Yes
Forced : No
Audio #1
ID : 2
Format : E-AC-3
Format/Info : Enhanced AC-3
Commercial name : Dolby Digital Plus
Codec ID : A_EAC3
Duration : 1h 53mn
Bit rate mode : Constant
Bit rate : 640 Kbps
Channel(s) : 6 channels
Channel layout : L R C LFE Ls Rs
Sampling rate : 48.0 KHz
Frame rate : 31.250 fps (1536 SPF)
Compression mode : Lossy
Stream size : 518 MiB (4%)
Title : Russian Dub Netflix
Language : Russian
Service kind : Complete Main
Default : Yes
Forced : No
Audio #2
ID : 3
Format : AC-3
Format/Info : Audio Coding 3
Commercial name : Dolby Digital
Codec ID : A_AC3
Duration : 1h 53mn
Bit rate mode : Constant
Bit rate : 640 Kbps
Channel(s) : 6 channels
Channel layout : L R C LFE Ls Rs
Sampling rate : 48.0 KHz
Frame rate : 31.250 fps (1536 SPF)
Compression mode : Lossy
Stream size : 518 MiB (4%)
Title : Russian Dub Netflix
Language : Russian
Service kind : Complete Main
Default : No
Forced : No
Audio #3
ID : 4
Format : AC-3
Format/Info : Audio Coding 3
Commercial name : Dolby Digital
Codec ID : A_AC3
Duration : 1h 53mn
Bit rate mode : Constant
Bit rate : 448 Kbps
Channel(s) : 6 channels
Channel layout : L R C LFE Ls Rs
Sampling rate : 48.0 KHz
Frame rate : 31.250 fps (1536 SPF)
Compression mode : Lossy
Stream size : 363 MiB (3%)
Title : Russian MVO HDRezka Studio
Language : Russian
Service kind : Complete Main
Default : No
Forced : No
Audio #4
ID : 5
Format : E-AC-3 JOC
Format/Info : Enhanced AC-3 with Joint Object Coding
Commercial name : Dolby Digital Plus with Dolby Atmos
Codec ID : A_EAC3
Duration : 1h 53mn
Bit rate mode : Constant
Bit rate : 768 Kbps
Channel(s) : 6 channels
Channel layout : L R C LFE Ls Rs
Sampling rate : 48.0 KHz
Frame rate : 31.250 fps (1536 SPF)
Compression mode : Lossy
Stream size : 622 MiB (4%)
Title : English Original
Language : English
Service kind : Complete Main
Default : No
Forced : No
Complexity index : 16
Number of dynamic objects : 15
Bed channel count : 1 channel
Bed channel configuration : LFE
Text #1
ID : 6
Format : UTF-8
Codec ID : S_TEXT/UTF8
Codec ID/Info : UTF-8 Plain Text
Duration : 1h 51mn
Bit rate : 1 bps
Count of elements : 37
Stream size : 1.31 KiB (0%)
Title : Russian forced for Netflix
Language : Russian
Default : Yes
Forced : No
Text #2
ID : 7
Format : UTF-8
Codec ID : S_TEXT/UTF8
Codec ID/Info : UTF-8 Plain Text
Duration : 1h 42mn
Bit rate : 7 bps
Count of elements : 102
Stream size : 5.79 KiB (0%)
Title : Russian forced for HDRezka Studio
Language : Russian
Default : No
Forced : No
Text #3
ID : 8
Format : UTF-8
Codec ID : S_TEXT/UTF8
Codec ID/Info : UTF-8 Plain Text
Duration : 1h 51mn
Bit rate : 71 bps
Count of elements : 1408
Stream size : 58.4 KiB (0%)
Title : Russian full
Language : Russian
Default : No
Forced : No
Text #4
ID : 9
Format : UTF-8
Codec ID : S_TEXT/UTF8
Codec ID/Info : UTF-8 Plain Text
Duration : 2s 625ms
Bit rate : 64 bps
Count of elements : 1
Stream size : 21.0 Bytes (0%)
Title : English forced
Language : English
Default : No
Forced : No
Text #5
ID : 10
Format : UTF-8
Codec ID : S_TEXT/UTF8
Codec ID/Info : UTF-8 Plain Text
Duration : 1h 45mn
Bit rate : 100 bps
Count of elements : 1910
Stream size : 77.3 KiB (0%)
Title : English full
Language : English
Default : No
Forced : No

Скриншоты для ознакомления



Все одноименные релизы в Клубе
Время раздачи: 24/7 (круглосуточно) (до появления первых 3-5 скачавших)
 
Уважаемый посетитель, Вы зашли на сайт как незарегистрированный пользователь. Мы рекомендуем Вам зарегистрироваться либо зайти на сайт под своим именем.

Другие новости по теме:

  • Проект Power / Project Power (2020) WEB-DL [H.265 / 1080p-LQ] [HDR, 10-bit]
  • Проект Power / Project Power (2020) WEB-DL [H.264 / 720p-LQ]
  • Проект Power / Project Power (2020) WEB-DL [H.264 / 1080p-LQ]
  • Проект Power / Project Power (2020) WEB-DL [1080p] ATV
  • Проект Power / Project Power (2020) WEB-DL [H.265 / 2160p] [4K, SDR, 10-bit]
  • Проект Power / Project Power (2020) WEB-DL [H.265 / 2160p] [4K, HDR, 10-bit]
  • Проект Power / Project Power (2020) WEB-DLRip [H.264]


  • Информация
    Посетители, находящиеся в группе Гости, не могут оставлять комментарии в данной новости.
    Главная страница | Регистрация | Добавить новость | Новое на сайте Copyright © 2019. bolt.mmix.club All Rights Reserved