Подписывайся на наш канал в Telegram https://t.me/torrentok и получи доступ к торрентам без ограничений!
. bolt.mmix.club
Авторские права
con...@...Показать
Вход на сайт
Логин:
Пароль:
 
Навигация по сайту
Популярные статьи

Торрент трекер | Скачать торрент | Скачать через Торрент | Скачать торрент бесплатно | Скачать торрент без регистрации Фильмы торрент скачать Сердце дракона: Возмездие / Dragonheart Vengeance (2020) BDRip [H.264 / 1080p-LQ] [MVO] торрент скачать бесплатно

Сердце дракона: Возмездие / Dragonheart Vengeance (2020) BDRip [H.264 / 1080p-LQ] [MVO] торрент скачать бесплатно

Фильмы торрент скачать
Сердце дракона: Возмездие / Dragonheart Vengeance (2020) BDRip [H.264 / 1080p-LQ] [MVO]Производство: США/De Laurentiis, Raffaella De Laurentiis Productions
Жанр: Фантастика, Фэнтези, Боевик, Драма, Приключения
Режиссер: Иван Сильвестрини

Актеры
Хелена Бонем Картер, Джозеф Миллсон, Джек Кэйн, Arturo Muselli, Каролина Карлссон

Описание

Молодой фермер теряет при набеге бандитов всю свою семью. Одержимый жаждой мщения, он отправляется вдогонку за своими обидчиками, по пути обретая удивительных союзников.


Рейтинг MPAA: PG-13 (детям до 13 лет просмотр нежелателен)
Дата мировой премьеры: 4 февраля 2020
Дата российской премьеры: Неизвестна
Релиз от: SergeyAms
Продолжительность: 01: 36: 53
Качество видео: BDRip
Перевод: Многоголосый профессиональный
Субтитры: Английские
Видео: AVC/H.264, 1920x1080, ~5 Mbps
Аудио #1: AC3, 2 ch, 192 Kbps - Русский (MVO, ТВ3)
Аудио #2: DTS, 6 ch, 768 Kbps - Английский
Unique ID : 282917054970661860535936921072484614391 (0xD4D7D7C162CAAE51C2B1BD1E548200F7)
Complete name : D: TempNNMDragonheart.Vengeance.2020.180p.mkv
Format : Matroska
Format version : Version 4/Version 2
File size : 4.04 GiB
Duration : 1h 36mn
Overall bit rate : 5 967 Kbps
Writing library : Lavf57.71.100
Video
ID : 1
Format : AVC
Format/Info : Advanced Video Codec
Format profile : High@L4.1
Format settings, CABAC : Yes
Format settings, ReFrames : 4 frames
Codec ID : V_MPEG4/ISO/AVC
Duration : 1h 36mn
Bit rate : 5 000 Kbps
Width : 1 920 pixels
Height : 1 080 pixels
Display aspect ratio : 16: 9
Frame rate mode : Constant
Frame rate : 23.976 fps
Color space : YUV
Chroma subsampling : 4: 2: 0
Bit depth : 8 bits
Scan type : Progressive
Bits/(Pixel*Frame) : 0.101
Stream size : 3.31 GiB (82%)
Writing library : x264 core 157 r2935 545de2f
Encoding settings : cabac=1/ref=4/deblock=1: -2: -2/analyse=0x3: 0x113/me=umh/subme=11/psy=1/psy_rd=1.05: 0.10/mixed_ref=1/me_range=32/chroma_me=1/trellis=2/8x8dct=1/cqm=0/deadzone=21, 11/fast_pskip=0/chroma_qp_offset=-3/threads=13/lookahead_threads=1/sliced_threads=0/nr=0/decimate=0/interlaced=0/bluray_compat=0/constrained_intra=0/bframes=6/b_pyramid=2/b_adapt=2/b_bias=0/direct=1/weightb=1/open_gop=0/weightp=2/keyint=240/keyint_min=24/scenecut=40/intra_refresh=0/rc=2pass/mbtree=0/bitrate=5000/ratetol=1.0/qcomp=0.70/qpmin=3/qpmax=69/qpstep=4/cplxblur=20.0/qblur=0.5/ip_ratio=1.40/pb_ratio=1.30/aq=2: 1.00
Language : English
Default : Yes
Forced : No
Audio #1
ID : 2
Format : AC-3
Format/Info : Audio Coding 3
Mode extension : CM (complete main)
Format settings, Endianness : Big
Codec ID : A_AC3
Duration : 1h 36mn
Bit rate mode : Constant
Bit rate : 192 Kbps
Channel(s) : 2 channels
Channel positions : Front: L R
Sampling rate : 48.0 KHz
Bit depth : 16 bits
Compression mode : Lossy
Stream size : 133 MiB (3%)
Title : MVO | TB3
Language : Russian
Default : Yes
Forced : No
Audio #2
ID : 3
Format : DTS
Format/Info : Digital Theater Systems
Mode : 16
Format settings, Endianness : Big
Codec ID : A_DTS
Duration : 1h 36mn
Bit rate mode : Constant
Bit rate : 768 Kbps
Channel(s) : 6 channels
Channel positions : Front: L C R, Side: L R, LFE
Sampling rate : 48.0 KHz
Bit depth : 16 bits
Compression mode : Lossy
Stream size : 532 MiB (13%)
Language : English
Default : No
Forced : No
Text
ID : 4
Format : UTF-8
Codec ID : S_TEXT/UTF8
Codec ID/Info : UTF-8 Plain Text
Title : English-SRT
Language : English
Default : Yes
Forced : No
Menu
00: 00: 00.000 : : Chapter 01
00: 05: 33.416 : : Chapter 02
00: 09: 01.457 : : Chapter 03
00: 13: 01.655 : : Chapter 04
00: 17: 46.106 : : Chapter 05
00: 21: 59.443 : : Chapter 06
00: 27: 17.385 : : Chapter 07
00: 34: 52.298 : : Chapter 08
00: 38: 06.617 : : Chapter 09
00: 42: 08.943 : : Chapter 10
00: 45: 11.667 : : Chapter 11
00: 51: 19.701 : : Chapter 12
00: 58: 41.476 : : Chapter 13
01: 03: 53.037 : : Chapter 14
01: 07: 56.113 : : Chapter 15
01: 12: 40.189 : : Chapter 16
01: 18: 11.478 : : Chapter 17
01: 24: 32.734 : : Chapter 18
01: 29: 24.650 : : Chapter 19
01: 32: 25.915 : : Chapter 20

Скриншоты для ознакомления



Все одноименные релизы в Клубе
Время раздачи: 24/7 (до появления первых 3-5 скачавших)
 
Уважаемый посетитель, Вы зашли на сайт как незарегистрированный пользователь. Мы рекомендуем Вам зарегистрироваться либо зайти на сайт под своим именем.

Другие новости по теме:

  • Сердце дракона: Возмездие / Dragonheart Vengeance (2020) BDRemux [H.264 / 1080p] [MVO]
  • Сердце дракона: Возмездие / Dragonheart Vengeance (2020) HDRip [MVO]
  • Сердце дракона 3: Проклятье чародея / Dragonheart 3: The Sorcerers Curse (2015) DVDRip [VO] скачать через торрент бесплатно
  • Сердце дракона 3: Проклятье чародея / Dragonheart 3: The Sorcerers Curse (2015) WEB-DL [720p] [VO] скачать через торрент бесплатно
  • Сердце дракона 3: Проклятье чародея / Dragonheart 3: The Sorcerers Curse (2015) HDRip
  • Сердце дракона 3: Проклятье чародея / Dragonheart 3: The Sorcerers Curse (2015) BDRip [1080p] [EN / EN, Fr, Sp Sub]
  • Сердце дракона 3: Проклятье чародея / Dragonheart 3: The Sorcerers Curse (2015) BDRip [720p] [EN / EN, Fr, Sp Sub]
  • Сердце дракона 3: Проклятье чародея / Dragonheart 3: The Sorcerers Curse (2015) WEB-DL [720p] ATV скачать через торрент бесплатно


  • Информация
    Посетители, находящиеся в группе Гости, не могут оставлять комментарии в данной новости.
    Главная страница | Регистрация | Добавить новость | Новое на сайте Copyright © 2019. bolt.mmix.club All Rights Reserved