Подписывайся на наш канал в Telegram https://t.me/torrentok и получи доступ к торрентам без ограничений!
. bolt.mmix.club
Авторские права
con...@...Показать
Вход на сайт
Логин:
Пароль:
 
Навигация по сайту
Популярные статьи

Торрент трекер | Скачать торрент | Скачать через Торрент | Скачать торрент бесплатно | Скачать торрент без регистрации Фильмы торрент скачать Настоящее будущее (2020) WEB-DL [H.264 / 1080-LQ] торрент скачать бесплатно

Настоящее будущее (2020) WEB-DL [H.264 / 1080-LQ] торрент скачать бесплатно

Фильмы торрент скачать
Настоящее будущее (2020) WEB-DL [H.264 / 1080-LQ]Производство: Seabird Creative, All Media, Космосфильм
Жанр: комедия, драма
Режиссер: Илья Хотиненко, Ольга Дибцева, Андрей Мудров

Актеры
Ана Джавакишвили, Никита Кологривый, Сергей Бурунов, Владимир Вдовиченков, Юлия Александрова, Анна Котова-Дерябина, Дмитрий Куличков, Александр Дмитриев, Михаил Тройник, Алёна Хмельницкая

Описание

Анна - студентка-социолог из благополучной семьи должна сдать практику и отправляется на улицу, чтобы провести исследование, в ходе которого нужно выяснить, каким современные россияне видят свое будущее.
Влюбленный в нее Нечаев - простой парень с окраины - пытается ей помочь. Вместе они проходят через восемь историй людей, по-разному относящихся к своему настоящему и будущему, но так и не находят точного ответа на поставленный вопрос. Зато их собственным ответом становится вспыхнувшая взаимная любовь. Здесь и сейчас.

Возраст: 18+ (зрителям, достигшим 18 лет. запрещено для детей)
Присутствует ненормативная лексика!

Продолжительность: 01: 34: 44
Качество видео: WEB-DL
Видео: AVC/H.264, 1920x1016, 5169 Кbps
Аудио: AC3, 6 ch, 384 Кbps
Общее
Уникальный идентификатор : 4390640477387350775317211006900041233 (0x34D9B49F1A162FCCA9C57F3B29AF611)
Полное имя : Nastojashee.budushee.2020.1080p.WEB_DL.mkv
Формат : Matroska
Версия формата : Version 4
Размер файла : 3, 68 Гбайт
Продолжительность : 1 ч. 34 м.
Общий поток : 5 555 Кбит/сек
Название фильма : Настоящее будущее (2020 )
Дата кодирования : UTC 2020-08-19 05: 20: 40
Программа кодирования : mkvmerge v47.0.0 (\'Black Flag\') 64-bit
Библиотека кодирования : libebml v1.3.10 + libmatroska v1.5.2
Обложка : Yes
Attachments : cover.jpg
Видео
Идентификатор : 1
Формат : AVC
Формат/Информация : Advanced Video Codec
Профиль формата : High@L4
Настройки формата : CABAC/4 Ref Frames
Параметр CABAC формата : Да
Параметр RefFrames формата : 4 кадра
Параметр GOP формата : N=1
Идентификатор кодека : V_MPEG4/ISO/AVC
Продолжительность : 1 ч. 34 м.
Битрейт : 5 169 Кбит/сек
Ширина : 1 920 пикселей
Высота : 1 016 пикселей
Соотношение сторон : 1, 890
Режим частоты кадров : Постоянный
Частота кадров : 24, 000 кадра/сек
Цветовое пространство : YUV
Субдискретизация насыщенности : 4: 2: 0
Битовая глубина : 8 бит
Тип развёртки : Прогрессивная
Бит/(Пиксели*Кадры) : 0.110
Размер потока : 3, 42 Гбайт (93%)
Язык : Russian
Default : Да
Forced : Да
Цветовой диапазон : Limited
Основные цвета : BT.709
Характеристики трансфера : BT.709
Коэффициенты матрицы : BT.709
Аудио
Идентификатор : 2
Формат : AC-3
Формат/Информация : Audio Coding 3
Коммерческое название : Dolby Digital
Идентификатор кодека : A_AC3
Продолжительность : 1 ч. 34 м.
Вид битрейта : Постоянный
Битрейт : 384 Кбит/сек
Каналы : 6 каналов
Channel layout : L R C LFE Ls Rs
Частота : 48, 0 КГц
Частота кадров : 31, 250 кадров/сек (1536 SPF)
Метод сжатия : С потерями
Размер потока : 260 Мбайт (7%)
Заголовок : iTunes
Язык : Russian
Service kind : Complete Main
Default : Да
Forced : Да
Меню
00: 00: 00.000 : ru: Глава 1
00: 06: 22.458 : ru: Глава 2
00: 10: 54.374 : ru: Глава 3
00: 20: 04.124 : ru: Глава 4
00: 26: 50.415 : ru: Глава 5
00: 32: 20.040 : ru: Глава 6
00: 42: 39.373 : ru: Глава 7
00: 49: 16.081 : ru: Глава 8
00: 58: 35.747 : ru: Глава 9
01: 13: 18.122 : ru: Глава 10
01: 18: 50.747 : ru: Глава 11
01: 26: 44.205 : ru: Глава 12

Скриншоты для ознакомления


Все одноименные релизы в Клубе
Время раздачи: 24/7 (до появления первых 3-5 скачавших)
 
Уважаемый посетитель, Вы зашли на сайт как незарегистрированный пользователь. Мы рекомендуем Вам зарегистрироваться либо зайти на сайт под своим именем.

Другие новости по теме:

  • А. П. Быстров | Прошлое, настоящее, будущее человека (1957) [PDF]
  • Антон Первушин и др. | Космос. Прошлое, настоящее, будущее (2018) [EPUB]
  • Джейсон Меркоски | Книга 2.0. Прошлое, настоящее и будущее электронных книг глазами создателя Kindle (2014) [FB2] скачать через торрент бесплатно
  • Г. Й. Клейн | Прошлое, настоящее и будущее Вселенной (1911) [DJVU]
  • Элгуджа Диомидович Гурешидзе (Колхидский) | Прошлое, настоящее и будущее (2018) [PDF]
  • Г.Т. Черненко | Нанотехнологии: настоящее и будущее (2018) [PDF]
  • Гурешидзе Элгуджа (Колхидский) | Прошлое, настоящее и будущее (2018) [PDF]
  • Ник Пайенсон | Наблюдая за китами. Прошлое, настоящее и будущее загадочных гигантов (2020) [EPUB]


  • Информация
    Посетители, находящиеся в группе Гости, не могут оставлять комментарии в данной новости.
    Главная страница | Регистрация | Добавить новость | Новое на сайте Copyright © 2019. bolt.mmix.club All Rights Reserved