Подписывайся на наш канал в Telegram https://t.me/torrentok и получи доступ к торрентам без ограничений!
. bolt.mmix.club
Авторские права
con...@...Показать
Вход на сайт
Логин:
Пароль:
 
Навигация по сайту
Популярные статьи

Торрент трекер | Скачать торрент | Скачать через Торрент | Скачать торрент бесплатно | Скачать торрент без регистрации Фильмы торрент скачать 21 мост / 21 Bridges (2019) WEB-DL [H.265 / 2160p] [4K, SDR, 10-bit] торрент скачать бесплатно

21 мост / 21 Bridges (2019) WEB-DL [H.265 / 2160p] [4K, SDR, 10-bit] торрент скачать бесплатно

Фильмы торрент скачать
21 мост / 21 Bridges (2019) WEB-DL [H.265 / 2160p] [4K, SDR, 10-bit]Производство: США/AGBO, Huayi Brothers, MWM Studios
Жанр: боевик, триллер, драма, криминал
Режиссер: Брайан Кирк

Актеры
Чедвик Боузман, Сиенна Миллер, Тейлор Китч, Дж.К. Симмонс, Стефан Джеймс, Кит Дэвид, Александр Сиддиг, Луис Канселми, Виктория Картахена, Гари Карр

Описание

Он охотится на преступников, которые совершили на Манхэттене дерзкое ограбление, оставив после себя 8 мертвых полицейских. А продажные копы тем временем охотятся на него, пытаясь подставить. Но преступникам не скрыться, так как первый раз в истории Нью-Йорка полиция перекрыла все выходы с острова, в том числе 21 мост.


Возраст: 16+ (зрителям, достигшим 16 лет)
Рейтинг MPAA: R (лицам до 17 лет обязательно присутствие взрослого)
Дата мировой премьеры: 25 сентября 2019
Дата российской премьеры: 5 декабря 2019
Релиз от: TeamHD
Продолжительность: 01: 39: 32
Качество видео: WEB-DL 2160p
Язык озвучки: Русский, украинский, английский
Перевод: Дублированный, авторский
Субтитры: Английские (SDH, Full)
Видео: HEVC/H.265, 3840x2160, ~21.6 Mbps
Аудио 1: AC3, 6 ch, 384 Kbps, Русский (iTunes)
Аудио 2: DTS-HD MA, 6 ch, 3868 Kbps, Русский (AVO E. Гаевский)
Аудио 3: AC3, 2 ch, 192 Kbps, Украинский (DUB iTunes)
Аудио 4: DTS-HD MA, 6 ch, 3577 Kbps, Английский
Аудио 5: E-AC3, 6 ch, 384 Kbps, Английский
Общее
Уникальный идентификатор : 197671544998129700367649228031584174006 (0x94B6279EC7504CA08021638ABFA8FFB6)
Полное имя : F: CINEMA21.Bridges.2019.2160p.WEB-DL.2xRus.Ukr.2xEng-BLUTONiUM_THD.mkv
Формат : Matroska
Версия формата : Version 4
Размер файла : 20, 9 Гбайт
Продолжительность : 1 ч. 39 м.
Режим общего битрейта : Переменный
Общий поток : 30, 0 Мбит/сек
Название фильма : 21 Bridges (2019) - Release for TeamHD
Дата кодирования : UTC 2020-08-18 00: 38: 31
Программа кодирования : mkvmerge v48.0.0 (\'Fortress Around Your Heart\') 64-bit
Библиотека кодирования : libebml v1.4.0 + libmatroska v1.6.0
Видео
Идентификатор : 1
Формат : HEVC
Формат/Информация : High Efficiency Video Coding
Профиль формата : Main 10@L5@High
Идентификатор кодека : V_MPEGH/ISO/HEVC
Продолжительность : 1 ч. 39 м.
Битрейт : 21, 6 Мбит/сек
Ширина : 3 840 пикселей
Высота : 2 160 пикселей
Соотношение сторон : 16: 9
Режим частоты кадров : Постоянный
Частота кадров : 23, 976 (24000/1001) кадра/сек
Цветовое пространство : YUV
Субдискретизация насыщенности : 4: 2: 0
Битовая глубина : 10 бит
Бит/(Пиксели*Кадры) : 0.109
Размер потока : 15, 0 Гбайт (72%)
Default : Да
Forced : Нет
Цветовой диапазон : Limited
Основные цвета : BT.709
Характеристики трансфера : BT.709
Коэффициенты матрицы : BT.709
Аудио #1
Идентификатор : 2
Формат : AC-3
Формат/Информация : Audio Coding 3
Коммерческое название : Dolby Digital
Идентификатор кодека : A_AC3
Продолжительность : 1 ч. 39 м.
Вид битрейта : Постоянный
Битрейт : 384 Кбит/сек
Каналы : 6 каналов
Channel layout : L R C LFE Ls Rs
Частота : 48, 0 КГц
Частота кадров : 31, 250 кадров/сек (1536 SPF)
Метод сжатия : С потерями
Размер потока : 273 Мбайт (1%)
Заголовок : iTunes
Язык : Russian
Service kind : Complete Main
Default : Да
Forced : Нет
Аудио #2
Идентификатор : 3
Формат : DTS XLL
Формат/Информация : Digital Theater Systems
Коммерческое название : DTS-HD Master Audio
Идентификатор кодека : A_DTS
Продолжительность : 1 ч. 39 м.
Вид битрейта : Переменный
Битрейт : 3 868 Кбит/сек
Каналы : 6 каналов
Channel layout : C L R Ls Rs LFE
Частота : 48, 0 КГц
Частота кадров : 93, 750 кадра/сек (512 SPF)
Битовая глубина : 24 бит
Метод сжатия : Без потерь
Размер потока : 2, 69 Гбайт (13%)
Заголовок : E. Гаевский
Язык : Russian
Default : Нет
Forced : Нет
Аудио #3
Идентификатор : 4
Формат : AC-3
Формат/Информация : Audio Coding 3
Коммерческое название : Dolby Digital
Идентификатор кодека : A_AC3
Продолжительность : 1 ч. 39 м.
Вид битрейта : Постоянный
Битрейт : 192 Кбит/сек
Каналы : 2 канала
Channel layout : L R
Частота : 48, 0 КГц
Частота кадров : 31, 250 кадров/сек (1536 SPF)
Метод сжатия : С потерями
Размер потока : 137 Мбайт (1%)
Заголовок : iTunes
Язык : Ukrainian
Service kind : Complete Main
Default : Нет
Forced : Нет
Аудио #4
Идентификатор : 5
Формат : DTS XLL
Формат/Информация : Digital Theater Systems
Коммерческое название : DTS-HD Master Audio
Идентификатор кодека : A_DTS
Продолжительность : 1 ч. 39 м.
Вид битрейта : Переменный
Битрейт : 3 577 Кбит/сек
Каналы : 6 каналов
Channel layout : C L R Ls Rs LFE
Частота : 48, 0 КГц
Частота кадров : 93, 750 кадра/сек (512 SPF)
Битовая глубина : 24 бит
Метод сжатия : Без потерь
Размер потока : 2, 49 Гбайт (12%)
Язык : English
Default : Нет
Forced : Нет
Аудио #5
Идентификатор : 6
Формат : E-AC-3
Формат/Информация : Enhanced AC-3
Коммерческое название : Dolby Digital Plus
Идентификатор кодека : A_EAC3
Продолжительность : 1 ч. 39 м.
Вид битрейта : Постоянный
Битрейт : 384 Кбит/сек
Каналы : 6 каналов
Channel layout : L R C LFE Ls Rs
Частота : 48, 0 КГц
Частота кадров : 31, 250 кадров/сек (1536 SPF)
Метод сжатия : С потерями
Размер потока : 273 Мбайт (1%)
Язык : English
Service kind : Complete Main
Default : Нет
Forced : Нет
Текст #1
Идентификатор : 7
Формат : UTF-8
Идентификатор кодека : S_TEXT/UTF8
Идентификатор кодека/Информация : UTF-8 Plain Text
Продолжительность : 1 ч. 30 м.
Битрейт : 85 бит/сек
Count of elements : 982
Размер потока : 56, 4 Кбайт (0%)
Язык : Russian
Default : Нет
Forced : Нет
Текст #2
Идентификатор : 8
Формат : UTF-8
Идентификатор кодека : S_TEXT/UTF8
Идентификатор кодека/Информация : UTF-8 Plain Text
Продолжительность : 1 ч. 29 м.
Битрейт : 56 бит/сек
Count of elements : 1113
Размер потока : 37, 2 Кбайт (0%)
Язык : English
Default : Нет
Forced : Нет
Текст #3
Идентификатор : 9
Формат : UTF-8
Идентификатор кодека : S_TEXT/UTF8
Идентификатор кодека/Информация : UTF-8 Plain Text
Продолжительность : 1 ч. 30 м.
Битрейт : 62 бит/сек
Count of elements : 1275
Размер потока : 41, 4 Кбайт (0%)
Заголовок : SDH
Язык : English
Default : Нет
Forced : Нет

Скриншоты для ознакомления



Все одноименные релизы в Клубе
Время раздачи: с 05: 00 до 19: 00 (до появления первых 3-5 скачавших)
 
Уважаемый посетитель, Вы зашли на сайт как незарегистрированный пользователь. Мы рекомендуем Вам зарегистрироваться либо зайти на сайт под своим именем.

Другие новости по теме:

  • 21 мост / 21 Bridges (2019) BDRip [H.264 / 720p]
  • 21 мост / 21 Bridges (2019) BDRip [H.264 / 1080p]
  • 21 мост / 21 Bridges (2019) BDRemux [H.264 / 1080p]
  • 21 мост / 21 Bridges (2019) WEB-DLRip
  • 21 мост / 21 Bridges (2019) WEB-DLRip [H.265] [10-bit] [PR]
  • 21 мост / 21 Bridges (2019) WEB-DLRip
  • 21 мост / 21 Bridges (2019) WEB-DL [H.264 / 1080p-LQ]
  • 21 мост / 21 Bridges (2019) WEB-DL [H.264 / 720p]


  • Информация
    Посетители, находящиеся в группе Гости, не могут оставлять комментарии в данной новости.
    Главная страница | Регистрация | Добавить новость | Новое на сайте Copyright © 2019. bolt.mmix.club All Rights Reserved