Подписывайся на наш канал в Telegram https://t.me/torrentok и получи доступ к торрентам без ограничений!
. bolt.mmix.club
Авторские права
con...@...Показать
Вход на сайт
Логин:
Пароль:
 
Навигация по сайту
Популярные статьи

Торрент трекер | Скачать торрент | Скачать через Торрент | Скачать торрент бесплатно | Скачать торрент без регистрации Фильмы торрент скачать Первая ведьма / The Wretched (2019) BDRemux [H.264 / 1080p] [MVO] торрент скачать бесплатно

Первая ведьма / The Wretched (2019) BDRemux [H.264 / 1080p] [MVO] торрент скачать бесплатно

Фильмы торрент скачать
Первая ведьма / The Wretched (2019) BDRemux [H.264 / 1080p] [MVO]Производство: США/Cailleach Productions
Жанр: Ужасы
Режиссер: Бретт Пирс, Дрю Т. Пирс

Актеры
Джон-Пол Ховард, Пайпер Курда, Джеймисон Джонс, Ази Тесфай, Цара Малер, Кевин Бигли

Описание

17-летний Бэн, переживая из-за разлада родителей, приезжает на лето к отцу провести время на природе и подработать на пристани. В соседнем домике проживает молодая пара с двумя детьми, и однажды после лесной прогулки они приводят с собой древнее зло. Бен сразу же замечает, что по соседству начало твориться нечто странное, но отец его даже слушать не хочет, а новая знакомая Меллори считает, что всему можно найти рациональное объяснение.


Возраст: 16+ (зрителям, достигшим 16 лет)
Дата мировой премьеры: 19 июля 2019
Дата российской премьеры: 8 октября 2020 , Экспонента
Продолжительность: 01: 38: 52
Качество видео: BDRemux
Перевод: Многоголосый любительский
Субтитры: Русские (Forced), Английские
Видео: AVC/H.264, 1920x1080, ~24 Mbps
Аудио 1: AC3, 2 ch, 256 Kbps - Русский (MVO, AlphaProject)
Аудио 2: DTS-HD MA, 6 ch, 2010 Kbps - Английский
Общее
Уникальный идентификатор : 188156876013589004222263462866477396719 (0x8D8DB23891F8A1EA558B9235A01C32EF)
Полное имя : C: The.Wretched.2019.BDRemux.1080p.mkv
Формат : Matroska
Версия формата : Version 4
Размер файла : 17, 5 Гбайт
Продолжительность : 1 ч. 38 м.
Режим общего битрейта : Переменный
Общий поток : 25, 4 Мбит/сек
Дата кодирования : UTC 2020-08-19 19: 10: 45
Программа кодирования : mkvmerge v49.0.0 (\'Sick Of Losing Soulmates\') 64-bit
Библиотека кодирования : libebml v1.4.0 + libmatroska v1.6.1
Видео
Идентификатор : 1
Формат : AVC
Формат/Информация : Advanced Video Codec
Профиль формата : High@L4.1
Настройки формата : CABAC/4 Ref Frames
Параметр CABAC формата : Да
Параметр RefFrames формата : 4 кадра
Идентификатор кодека : V_MPEG4/ISO/AVC
Продолжительность : 1 ч. 35 м.
Вид битрейта : Переменный
Битрейт : 24, 0 Мбит/сек
Максимальный битрейт : 40, 0 Мбит/сек
Ширина : 1 920 пикселей
Высота : 1 080 пикселей
Соотношение сторон : 16: 9
Режим частоты кадров : Постоянный
Частота кадров : 23, 976 (24000/1001) кадра/сек
Цветовое пространство : YUV
Субдискретизация насыщенности : 4: 2: 0
Битовая глубина : 8 бит
Тип развёртки : Прогрессивная
Бит/(Пиксели*Кадры) : 0.482
Размер потока : 16, 0 Гбайт (91%)
Язык : English
Default : Нет
Forced : Нет
Цветовой диапазон : Limited
Основные цвета : BT.709
Характеристики трансфера : BT.709
Коэффициенты матрицы : BT.709
Аудио #1
Идентификатор : 2
Формат : AC-3
Формат/Информация : Audio Coding 3
Коммерческое название : Dolby Digital
Идентификатор кодека : A_AC3
Продолжительность : 1 ч. 36 м.
Вид битрейта : Постоянный
Битрейт : 256 Кбит/сек
Каналы : 2 канала
Channel layout : L R
Частота : 48, 0 КГц
Частота кадров : 31, 250 кадров/сек (1536 SPF)
Метод сжатия : С потерями
Размер потока : 176 Мбайт (1%)
Заголовок : MVO | AlphaProject
Язык : Russian
Service kind : Complete Main
Default : Да
Forced : Нет
Аудио #2
Идентификатор : 3
Формат : DTS XLL
Формат/Информация : Digital Theater Systems
Коммерческое название : DTS-HD Master Audio
Идентификатор кодека : A_DTS
Продолжительность : 1 ч. 38 м.
Вид битрейта : Переменный
Битрейт : 2 010 Кбит/сек
Каналы : 6 каналов
Channel layout : C L R Ls Rs LFE
Частота : 48, 0 КГц
Частота кадров : 93, 750 кадра/сек (512 SPF)
Битовая глубина : 16 бит
Метод сжатия : Без потерь
Размер потока : 1, 39 Гбайт (8%)
Язык : English
Default : Нет
Forced : Нет
Текст #1
Идентификатор : 4
Формат : UTF-8
Идентификатор кодека : S_TEXT/UTF8
Идентификатор кодека/Информация : UTF-8 Plain Text
Продолжительность : 1 ч. 30 м.
Битрейт : 68 бит/сек
Count of elements : 1136
Размер потока : 45, 3 Кбайт (0%)
Язык : Russian
Default : Нет
Forced : Нет
Текст #2
Идентификатор : 5
Формат : UTF-8
Идентификатор кодека : S_TEXT/UTF8
Идентификатор кодека/Информация : UTF-8 Plain Text
Продолжительность : 1 ч. 30 м.
Битрейт : 56 бит/сек
Count of elements : 860
Размер потока : 37, 6 Кбайт (0%)
Язык : Russian
Default : Нет
Forced : Нет
Текст #3
Идентификатор : 6
Формат : UTF-8
Идентификатор кодека : S_TEXT/UTF8
Идентификатор кодека/Информация : UTF-8 Plain Text
Продолжительность : 1 ч. 30 м.
Битрейт : 34 бит/сек
Count of elements : 867
Размер потока : 23, 1 Кбайт (0%)
Язык : English
Default : Нет
Forced : Нет
Меню
00: 00: 00.000 : en: Chapter 01
00: 05: 38.421 : en: Chapter 02
00: 14: 55.811 : en: Chapter 03
00: 21: 28.078 : en: Chapter 04
00: 30: 23.571 : en: Chapter 05
00: 37: 31.540 : en: Chapter 06
00: 45: 46.326 : en: Chapter 07
00: 53: 09.394 : en: Chapter 08
01: 00: 42.055 : en: Chapter 09
01: 08: 16.634 : en: Chapter 10
01: 19: 18.128 : en: Chapter 11
01: 31: 01.622 : en: Chapter 12
 
Уважаемый посетитель, Вы зашли на сайт как незарегистрированный пользователь. Мы рекомендуем Вам зарегистрироваться либо зайти на сайт под своим именем.

Другие новости по теме:

  • Первая ведьма / The Wretched (2019) WEBRip [H.264 / 1080p-LQ] [MVO, AD]
  • Первая ведьма / The Wretched (2019) WEB-DLRip [H.264 / 720p-LQ] [DVO] [AD]
  • Первая ведьма / The Wretched (2019) WEBRip [H.264 / 1080p] [DVO]


  • Информация
    Посетители, находящиеся в группе Гости, не могут оставлять комментарии в данной новости.
    Главная страница | Регистрация | Добавить новость | Новое на сайте Copyright © 2019. bolt.mmix.club All Rights Reserved