Подписывайся на наш канал в Telegram https://t.me/torrentok и получи доступ к торрентам без ограничений!
. bolt.mmix.club
Авторские права
con...@...Показать
Вход на сайт
Логин:
Пароль:
 
Навигация по сайту
Популярные статьи

Торрент трекер | Скачать торрент | Скачать через Торрент | Скачать торрент бесплатно | Скачать торрент без регистрации Фильмы торрент скачать Оливер Твист / Oliver Twist (2005) HDTVRip [H.264] [Open Matte] торрент скачать бесплатно

Оливер Твист / Oliver Twist (2005) HDTVRip [H.264] [Open Matte] торрент скачать бесплатно

Фильмы торрент скачать
Оливер Твист / Oliver Twist (2005) HDTVRip [H.264] [Open Matte]Производство: Франция, Великобритания, Чехия/R.P. Productions, Runteam II Ltd., ETIC Films, TriStar Pictures
Жанр: драма, криминал
Режиссер: Роман Полански

Актеры
Барни Кларк, Бен Кингсли, Джэми Формен, Эдвард Хардуик, Джереми Свифт, Иэн МакНис, Ричард Дерден, Тимоти Бейтсон, Энди де ла Тур, Филип Хесс

Описание

19-й век. Мальчик по имени Оливер Твист, брошенный родителями, оказывается на улицах Лондона. Здесь он знакомится с вором по имени Фэджин, который приглашает Оливера в свою команду.
Некоторое время спустя Оливер, начинающий вор, попадается на горячем. Однако, поймавший его мистер Браунлоу вместо того, чтобы наказать маленького мерзавца, решает его воспитать…


Возраст: 12+ (зрителям, достигшим 12 лет)
Рейтинг MPAA: PG-13 (детям до 13 лет просмотр нежелателен)
Продолжительность: 02: 10: 15
Качество видео: HDTVRip
Перевод: Дублированный
Субтитры: русские, английские
Видео: AVC/H.264, 1024x550, 23.976 fps, ~2000 kbps
Аудио 1: AC3, 6 ch, 384 kbps - Русский (DUB)
Аудио 2: AC3, 6 ch, 384 kbps - Английский
General
Unique ID : 193452366024721236270007032309675492743 (0x9189920945416E78A294DC54A8208587)
Complete name : D: Oliver Twist (2005) Open Matte.mkv
Format : Matroska
Format version : Version 4
File size : 2.50 GiB
Duration : 2 h 10 min
Overall bit rate : 2 752 kb/s
Movie name : Оливер Твист/Oliver Twist (2005) - #LORDILL#
Encoded date : UTC 2020-08-18 15: 19: 40
Writing application : mkvmerge v8.3.0 (\'Over the Horizon\') 32bit
Writing library : libebml v1.3.1 + libmatroska v1.4.2
Video
ID : 1
Format : AVC
Format/Info : Advanced Video Codec
Format profile : High@L4.1
Format settings : CABAC/12 Ref Frames
Format settings, CABAC : Yes
Format settings, Reference : 12 frames
Codec ID : V_MPEG4/ISO/AVC
Duration : 2 h 9 min
Bit rate : 2 000 kb/s
Width : 1 024 pixels
Height : 550 pixels
Display aspect ratio : 1.85: 1
Frame rate mode : Constant
Frame rate : 23.976 (24000/1001) FPS
Color space : YUV
Chroma subsampling : 4: 2: 0
Bit depth : 8 bits
Scan type : Progressive
Bits/(Pixel*Frame) : 0.148
Stream size : 1.81 GiB (72%)
Writing library : x264 core 159 r2991 1771b55
Encoding settings : cabac=1/ref=12/deblock=1: -2: -2/analyse=0x3: 0x113/me=umh/subme=10/psy=1/psy_rd=1.00: 0.20/mixed_ref=1/me_range=32/chroma_me=1/trellis=2/8x8dct=1/cqm=0/deadzone=21, 11/fast_pskip=0/chroma_qp_offset=-3/threads=12/lookahead_threads=2/sliced_threads=0/nr=0/decimate=1/interlaced=0/bluray_compat=0/constrained_intra=0/bframes=8/b_pyramid=2/b_adapt=2/b_bias=0/direct=3/weightb=1/open_gop=0/weightp=2/keyint=240/keyint_min=23/scenecut=40/intra_refresh=0/rc=2pass/mbtree=0/bitrate=2000/ratetol=1.0/qcomp=0.60/qpmin=0/qpmax=69/qpstep=4/cplxblur=20.0/qblur=0.5/ip_ratio=1.40/pb_ratio=1.30/aq=1: 1.00
Default : Yes
Forced : No
Audio #1
ID : 2
Format : AC-3
Format/Info : Audio Coding 3
Commercial name : Dolby Digital
Codec ID : A_AC3
Duration : 2 h 10 min
Bit rate mode : Constant
Bit rate : 384 kb/s
Channel(s) : 6 channels
Channel layout : L R C LFE Ls Rs
Sampling rate : 48.0 kHz
Frame rate : 31.250 FPS (1536 SPF)
Bit depth : 16 bits
Compression mode : Lossy
Stream size : 358 MiB (14%)
Language : Russian
Service kind : Complete Main
Default : Yes
Forced : No
Audio #2
ID : 3
Format : AC-3
Format/Info : Audio Coding 3
Commercial name : Dolby Digital
Codec ID : A_AC3
Duration : 2 h 9 min
Bit rate mode : Constant
Bit rate : 384 kb/s
Channel(s) : 6 channels
Channel layout : L R C LFE Ls Rs
Sampling rate : 48.0 kHz
Frame rate : 31.250 FPS (1536 SPF)
Bit depth : 16 bits
Compression mode : Lossy
Stream size : 355 MiB (14%)
Language : English
Service kind : Complete Main
Default : No
Forced : No
Text #1
ID : 4
Format : UTF-8
Codec ID : S_TEXT/UTF8
Codec ID/Info : UTF-8 Plain Text
Duration : 2 h 4 min
Bit rate : 74 b/s
Count of elements : 1327
Stream size : 67.6 KiB (0%)
Language : Russian
Default : No
Forced : No
Text #2
ID : 5
Format : UTF-8
Codec ID : S_TEXT/UTF8
Codec ID/Info : UTF-8 Plain Text
Duration : 2 h 1 min
Bit rate : 41 b/s
Count of elements : 964
Stream size : 36.8 KiB (0%)
Language : English
Default : No
Forced : No
 
Уважаемый посетитель, Вы зашли на сайт как незарегистрированный пользователь. Мы рекомендуем Вам зарегистрироваться либо зайти на сайт под своим именем.

Другие новости по теме:

  • Оливер Твист / Oliver Twist (2005) BDRemux [1080p] скачать через торрент бесплатно
  • Оливер Твист / Oliver Twist (1985) 2*DVD9 (серии 1-12 из 12)
  • Чарльз Диккенс | Оливер Твист. Книга для чтения на английском языке (2010) [PDF] [En]


  • Информация
    Посетители, находящиеся в группе Гости, не могут оставлять комментарии в данной новости.
    Главная страница | Регистрация | Добавить новость | Новое на сайте Copyright © 2019. bolt.mmix.club All Rights Reserved